Welcome to the Bangla Torrents.

User Tag List

Results 1 to 7 of 7
  1. #1
    VeRy HaPPy 2 b DDR RiPpEr

    Join Date
    Aug 2009
    Location
    Internet
    Posts
    3,329
    Post Thanks / Like
    Mentioned
    88 Post(s)
    Tagged
    43 Thread(s)
    Rep Power
    520

    Movie kakababu O Santu-Voyonkor Sundar Mission Kashmir-Part 1-TV Rip







    Code:
    Format : AVI Format/Info : Audio Video Interleave File size : 136 MiB Duration : 20mn 29s Overall bit rate : 926 Kbps Writing library : VirtualDub-MPEG2 build 24586/release Video ID : 0 Format : MPEG-4 Visual Format profile : Advanced Simple@L5 Format settings, BVOP : Yes Format settings, QPel : No Format settings, GMC : No warppoints Format settings, Matrix : Default (H.263) Muxing mode : Packed bitstream Codec ID : XVID Codec ID/Hint : XviD Duration : 20mn 29s Bit rate : 789 Kbps Width : 640 pixels Height : 400 pixels Display aspect ratio : 1.600 Frame rate : 25.000 fps Color space : YUV Chroma subsampling : 4:2:0 Bit depth : 8 bits Scan type : Progressive Bits/(Pixel*Frame) : 0.123 Stream size : 116 MiB (85%) Writing library : XviD 1.2.1 (UTC 2008-12-04) Audio ID : 1 Format : MPEG Audio Format version : Version 1 Format profile : Layer 3 Mode : Joint stereo Mode extension : MS Stereo Codec ID : 55 Codec ID/Hint : MP3 Duration : 20mn 28s Bit rate mode : Constant Bit rate : 128 Kbps Channel(s) : 2 channels Sampling rate : 48.0 KHz Stream size : 18.8 MiB (14%) Alignment : Split accross interleaves Interleave, duration : 40 ms (1.00 video frame) Interleave, preload duration : 500 ms







    SEEDING TIME:---
    JOKHON PARI







  2. #2
    Luminous
    Join Date
    Sep 2010
    Posts
    65
    Post Thanks / Like
    Mentioned
    0 Post(s)
    Tagged
    0 Thread(s)
    Rep Power
    26

    Thumbs up Re: kakababu O Santu-Voyonkor Sundar Mission Kashmir-Part 1-TV Rip

    THANKS for this nice post.

  3. #3
    ~Inactive Member~
    Join Date
    Apr 2009
    Location
    North Miami,FL
    Posts
    960
    Post Thanks / Like
    Mentioned
    5 Post(s)
    Tagged
    0 Thread(s)
    Rep Power
    86

    Thumbs up Re: kakababu O Santu-Voyonkor Sundar Mission Kashmir-Part 1-TV Rip

    Thanks for sharing!:applause::applause::applause:

  4. #4
    BT Addict
    Join Date
    Dec 2008
    Location
    ZURICH/KOLKATA
    Posts
    1,132
    Post Thanks / Like
    Mentioned
    6 Post(s)
    Tagged
    1 Thread(s)
    Rep Power
    58

    Thumbs up Re: kakababu O Santu-Voyonkor Sundar Mission Kashmir-Part 1-TV Rip

    nice post.......thanks for sharing:applause::applause::applause:

  5. #5
    ~Inactive Member~
    Join Date
    Aug 2007
    Location
    Basel
    Posts
    126
    Post Thanks / Like
    Mentioned
    2 Post(s)
    Tagged
    0 Thread(s)
    Rep Power
    45

    Re: kakababu O Santu-Voyonkor Sundar Mission Kashmir-Part 1-TV Rip

    পোস্টের লাগি ধন্যবাদ :applause::applause::applause:

  6. #6
    Luminous
    Join Date
    Aug 2009
    Posts
    70
    Post Thanks / Like
    Mentioned
    0 Post(s)
    Tagged
    0 Thread(s)
    Rep Power
    35

    Re: kakababu O Santu-Voyonkor Sundar Mission Kashmir-Part 1-TV Rip

    nice:applause:

  7. #7
    Deferential
    Join Date
    Nov 2009
    Location
    Kolkata
    Posts
    367
    Post Thanks / Like
    Mentioned
    0 Post(s)
    Tagged
    0 Thread(s)
    Rep Power
    38

    Re: kakababu O Santu-Voyonkor Sundar Mission Kashmir-Part 1-TV Rip

    Khub valo post.....dhonnobaad.....

 

 

Posting Permissions

  • You may not post new threads
  • You may not post replies
  • You may not post attachments
  • You may not edit your posts
  •