Welcome to the Bangla Torrents.

User Tag List

Results 1 to 6 of 6
  1. #1
    VeRy HaPPy 2 b DDR RiPpEr

    Join Date
    Aug 2009
    Location
    Internet
    Posts
    3,359
    Post Thanks / Like
    Mentioned
    89 Post(s)
    Tagged
    43 Thread(s)
    Rep Power
    522

    Movie kakababu O Santu-Voyonkor Sundar Mission Kashmir-Part 2-TV Rip







    Code:
    Format : AVI Format/Info : Audio Video Interleave File size : 139 MiB Duration : 20mn 43s Overall bit rate : 938 Kbps Writing library : VirtualDub-MPEG2 build 24586/release Video ID : 0 Format : MPEG-4 Visual Format profile : Advanced Simple@L5 Format settings, BVOP : Yes Format settings, QPel : No Format settings, GMC : No warppoints Format settings, Matrix : Default (H.263) Muxing mode : Packed bitstream Codec ID : XVID Codec ID/Hint : XviD Duration : 20mn 43s Bit rate : 800 Kbps Width : 640 pixels Height : 400 pixels Display aspect ratio : 1.600 Frame rate : 25.000 fps Color space : YUV Chroma subsampling : 4:2:0 Bit depth : 8 bits Scan type : Progressive Bits/(Pixel*Frame) : 0.125 Stream size : 119 MiB (85%) Writing library : XviD 1.2.1 (UTC 2008-12-04) Audio ID : 1 Format : MPEG Audio Format version : Version 1 Format profile : Layer 3 Mode : Joint stereo Mode extension : MS Stereo Codec ID : 55 Codec ID/Hint : MP3 Duration : 20mn 43s Bit rate mode : Constant Bit rate : 128 Kbps Channel(s) : 2 channels Sampling rate : 48.0 KHz Stream size : 19.0 MiB (14%) Alignment : Split accross interleaves Interleave, duration : 40 ms (1.00 video frame) Interleave, preload duration : 500 ms







    SEEDING TIME:---
    JOKHON PARI







  2. #2
    Deferential
    Join Date
    Aug 2007
    Location
    originally hooghly,but now at Gurgaon.
    Posts
    397
    Post Thanks / Like
    Mentioned
    3 Post(s)
    Tagged
    0 Thread(s)
    Rep Power
    55

    Thumbs up Re: kakababu O Santu-Voyonkor Sundar Mission Kashmir-Part 2-TV Rip

    Thnx.......
    :big hug::big hug::big hug:

  3. #3
    Luminous
    Join Date
    Mar 2009
    Posts
    57
    Post Thanks / Like
    Mentioned
    1 Post(s)
    Tagged
    0 Thread(s)
    Rep Power
    36

    Re: kakababu O Santu-Voyonkor Sundar Mission Kashmir-Part 2-TV Rip

    please seed korun ektu raat dutor por

  4. #4
    VeRy HaPPy 2 b DDR RiPpEr

    Join Date
    Aug 2009
    Location
    Internet
    Posts
    3,359
    Post Thanks / Like
    Mentioned
    89 Post(s)
    Tagged
    43 Thread(s)
    Rep Power
    522

    Re: kakababu O Santu-Voyonkor Sundar Mission Kashmir-Part 2-TV Rip

    Quote Originally Posted by ironcross77 View Post
    please seed korun ektu raat dutor por
    ami kal 10 am theke tana 30hrs seed korechhi,r normally rate chalaina,ajke hoyto chalabo,

    jodi kokhono seeding'r osubidha hoy,kindly bolben.

    jara dwl korchhen tarao please seed korun.

  5. #5
    Inactive Staff

    Join Date
    Mar 2009
    Location
    সাত সাগরের ওপারে
    Posts
    3,054
    Post Thanks / Like
    Mentioned
    107 Post(s)
    Tagged
    47 Thread(s)
    Rep Power
    647

    Re: kakababu O Santu-Voyonkor Sundar Mission Kashmir-Part 2-TV Rip

    অনেক ধন্যবাদ ।

  6. #6
    Erudite
    Join Date
    Aug 2007
    Posts
    186
    Post Thanks / Like
    Mentioned
    2 Post(s)
    Tagged
    0 Thread(s)
    Rep Power
    48

    Re: kakababu O Santu-Voyonkor Sundar Mission Kashmir-Part 2-TV Rip

    Thanks ....I've Downloaded part-1 & last part, here in part-2 I'm at 80%, only 27 MB left, please seed.....

 

 

Posting Permissions

  • You may not post new threads
  • You may not post replies
  • You may not post attachments
  • You may not edit your posts
  •