Welcome to the Bangla Torrents.

User Tag List

Results 1 to 10 of 10
  1. #1
    VeRy HaPPy 2 b DDR RiPpEr

    Join Date
    Aug 2009
    Location
    Internet
    Posts
    3,288
    Post Thanks / Like
    Mentioned
    86 Post(s)
    Tagged
    43 Thread(s)
    Rep Power
    519

    Movie Kakababu O Santu-MISHAR RAHASYA-ALL EPISODES-TV Rip[READ THREAD MUST]



    EKHANE PART 1 r PART 3 POST KORLAM.




    ~:---PART 1---:~




    Code:
    Format : AVI Format/Info : Audio Video Interleave File size : 124 MiB Duration : 18mn 47s Overall bit rate : 923 Kbps Writing library : VirtualDub-MPEG2 build 24586/release Video ID : 0 Format : MPEG-4 Visual Format profile : Advanced Simple@L5 Format settings, BVOP : Yes Format settings, QPel : No Format settings, GMC : No warppoints Format settings, Matrix : Default (H.263) Muxing mode : Packed bitstream Codec ID : XVID Codec ID/Hint : XviD Duration : 18mn 47s Bit rate : 785 Kbps Width : 640 pixels Height : 400 pixels Display aspect ratio : 1.600 Frame rate : 25.000 fps Color space : YUV Chroma subsampling : 4:2:0 Bit depth : 8 bits Scan type : Progressive Bits/(Pixel*Frame) : 0.123 Stream size : 106 MiB (85%) Writing library : XviD 1.2.1 (UTC 2008-12-04) Audio ID : 1 Format : MPEG Audio Format version : Version 1 Format profile : Layer 3 Mode : Joint stereo Mode extension : MS Stereo Codec ID : 55 Codec ID/Hint : MP3 Duration : 18mn 47s Bit rate mode : Constant Bit rate : 128 Kbps Channel(s) : 2 channels Sampling rate : 48.0 KHz Stream size : 17.2 MiB (14%) Alignment : Split accross interleaves Interleave, duration : 40 ms (1.00 video frame) Interleave, preload duration : 500 ms









    ~:---PART 3---:~




    Code:
    Format : AVI Format/Info : Audio Video Interleave File size : 115 MiB Duration : 17mn 26s Overall bit rate : 923 Kbps Writing library : VirtualDub-MPEG2 build 24586/release Video ID : 0 Format : MPEG-4 Visual Format profile : Advanced Simple@L5 Format settings, BVOP : Yes Format settings, QPel : No Format settings, GMC : No warppoints Format settings, Matrix : Default (H.263) Muxing mode : Packed bitstream Codec ID : XVID Codec ID/Hint : XviD Duration : 17mn 26s Bit rate : 786 Kbps Width : 640 pixels Height : 400 pixels Display aspect ratio : 1.600 Frame rate : 25.000 fps Color space : YUV Chroma subsampling : 4:2:0 Bit depth : 8 bits Scan type : Progressive Bits/(Pixel*Frame) : 0.123 Stream size : 98.1 MiB (85%) Writing library : XviD 1.2.1 (UTC 2008-12-04) Audio ID : 1 Format : MPEG Audio Format version : Version 1 Format profile : Layer 3 Mode : Joint stereo Mode extension : MS Stereo Codec ID : 55 Codec ID/Hint : MP3 Duration : 17mn 26s Bit rate mode : Constant Bit rate : 128 Kbps Channel(s) : 2 channels Sampling rate : 48.0 KHz Stream size : 16.0 MiB (14%) Alignment : Split accross interleaves Interleave, duration : 40 ms (1.00 video frame) Interleave, preload duration : 500 ms


    SEEDING TIME:---
    JOKHON PARI







  2. #2
    Deferential
    Join Date
    Aug 2007
    Location
    originally hooghly,but now at Gurgaon.
    Posts
    397
    Post Thanks / Like
    Mentioned
    3 Post(s)
    Tagged
    0 Thread(s)
    Rep Power
    54

    Thumbs up Re: Kakababu O Santu-MISHAR RAHASYA-ALL EPISODES-TV Rip[READ THREAD MUST]

    Thank you very muchhhhhh
    ..........
    :big hug::big hug::big hug:

  3. #3

    Join Date
    Jan 2007
    Posts
    1,824
    Post Thanks / Like
    Mentioned
    2 Post(s)
    Tagged
    0 Thread(s)
    Rep Power
    103

    Re: Kakababu O Santu-MISHAR RAHASYA-ALL EPISODES-TV Rip[READ THREAD MUST]

    :applause::applause::applause:

  4. #4
    ~Email Confirmation Pending~
    Join Date
    Mar 2009
    Location
    kolkata
    Posts
    118
    Post Thanks / Like
    Mentioned
    0 Post(s)
    Tagged
    0 Thread(s)
    Rep Power
    35

    Re: Kakababu O Santu-MISHAR RAHASYA-ALL EPISODES-TV Rip[READ THREAD MUST]

    rijubrata r ei release gulo khub bhalo

  5. #5
    Deferential
    Join Date
    Nov 2009
    Location
    Kolkata
    Posts
    367
    Post Thanks / Like
    Mentioned
    0 Post(s)
    Tagged
    0 Thread(s)
    Rep Power
    37

    Re: Kakababu O Santu-MISHAR RAHASYA-ALL EPISODES-TV Rip[READ THREAD MUST]

    Thank you for the post.......

  6. #6
    ~Inactive Member~
    Join Date
    Apr 2009
    Location
    North Miami,FL
    Posts
    960
    Post Thanks / Like
    Mentioned
    5 Post(s)
    Tagged
    0 Thread(s)
    Rep Power
    86

    Thumbs up Re: Kakababu O Santu-MISHAR RAHASYA-ALL EPISODES-TV Rip[READ THREAD MUST]

    Thanks for sharing!:applause::applause::applause:

  7. #7
    Erudite
    Join Date
    Aug 2007
    Posts
    186
    Post Thanks / Like
    Mentioned
    2 Post(s)
    Tagged
    0 Thread(s)
    Rep Power
    46

    Re: Kakababu O Santu-MISHAR RAHASYA-ALL EPISODES-TV Rip[READ THREAD MUST]

    thanks....Kakababu O Santu-MISHAR RAHASYA-ALL EPISODES....keu seed korun, dekhbo chele-buro mile....

  8. #8
    VeRy HaPPy 2 b DDR RiPpEr

    Join Date
    Aug 2009
    Location
    Internet
    Posts
    3,288
    Post Thanks / Like
    Mentioned
    86 Post(s)
    Tagged
    43 Thread(s)
    Rep Power
    519

    Re: Kakababu O Santu-MISHAR RAHASYA-ALL EPISODES-TV Rip[READ THREAD MUST]

    eta keu seed korte parben?

    pujote cinemata hall'e dekhte jabar age ei animation ta ekbar dekhe jabo vabchilam...

    plz jara namiechhen,tader modhye keu seed korle ektu thread'e comment kore janan kon torrent'ta seed korchhen....ami thaole setai namabo... :)

  9. #9
    Inquisitive
    Join Date
    Mar 2009
    Location
    Bhadreswar
    Posts
    46
    Post Thanks / Like
    Mentioned
    2 Post(s)
    Tagged
    0 Thread(s)
    Rep Power
    33

    Re: Kakababu O Santu-MISHAR RAHASYA-ALL EPISODES-TV Rip[READ THREAD MUST]

    Please seed koro bondhugon..Download korte parchi na......

  10. #10
    Erudite
    Join Date
    Aug 2013
    Location
    BARITE
    Posts
    220
    Post Thanks / Like
    Mentioned
    1 Post(s)
    Tagged
    0 Thread(s)
    Rep Power
    15

    Re: Kakababu O Santu-MISHAR RAHASYA-ALL EPISODES-TV Rip[READ THREAD MUST]

    valo release... seed please.

 

 

Posting Permissions

  • You may not post new threads
  • You may not post replies
  • You may not post attachments
  • You may not edit your posts
  •