Welcome to the Bangla Torrents.

User Tag List

Results 1 to 14 of 14
  1. #1
    Group Moderator

    Join Date
    May 2009
    Location
    বাংলা টরেন্টস
    Posts
    4,386
    Post Thanks / Like
    Mentioned
    569 Post(s)
    Tagged
    90 Thread(s)
    Rep Power
    258

    Movie Akaler Sandhane [ RE POST ]


    Presenting.....



    Akaler Sandhane





    In September 1980, a film crew comes to a village to make a film about a famine, which killed five million Bengalees in 1943. It was a man made famine, a side- product of the war, and the film crew will create the tragedy of those millions who died of starvation. The film documents the convivial life among the film crew and the hazards, problems and tension of film making on location. The actors live a double life, and the villagers, both simple and not-so-simple folk watch their work with wonder and suspicion. But as the film progresses, the recreated past begins to confront the present. The uneasy coexistence of 1943 and 1980 reveals bizarre connection, involving a village woman whose visions add a further dimension of timethat of future. A disturbing situation, indeed, for the famine-seekers!.


    CAST:

    Dhritiman Chatterjee
    Smita Patil
    Gita Sen
    Rajen Tarafdar
    Sreela Mazumder
    Radhamohan Bhattachariya
    Jayanta Chowdhury
    Dipankar De
    Jochhan Dastidar

    Director: Mrinal Sen
    Producer: D. K. Films
    Music: Salil Chowdhury




    Awards:

    1980 - National Film Award for Best Film
    1980 - National Film Award for Best Direction - Mrinal Sen
    1980 - National Film Award for Best Screenplay - Mrinal Sen
    1980 - National Film Award for Best Editing - Gangadhar Naskar
    1981 - 31st Berlin International Film Festival - Silver Bear - Special Jury Prize.





    Technical Information:

    Format : AVI
    Format/Info : Audio Video Interleave
    File size : 748 MiB
    Duration : 2h 4mn
    Overall bit rate : 839 Kbps

    Video
    ID : 0
    Format : MPEG-4 Visual
    Format profile : Advanced Simple@L5
    Format settings, BVOP : No
    Format settings, QPel : No
    Format settings, GMC : No warppoints
    Format settings, Matrix : Default (H.263)
    Codec ID : XVID
    Codec ID/Hint : XviD
    Duration : 2h 4mn
    Bit rate : 734 Kbps
    Width : 320 pixels
    Height : 240 pixels
    Display aspect ratio : 4:3
    Frame rate : 29.970 fps
    Color space : YUV
    Chroma subsampling : 4:2:0
    Bit depth : 8 bits
    Scan type : Progressive
    Bits/(Pixel*Frame) : 0.319
    Stream size : 655 MiB (88%)
    Writing library : XviD 1.1.2 (UTC 2006-11-01)

    Audio
    ID : 1
    Format : MPEG Audio
    Format version : Version 1
    Format profile : Layer 3
    Codec ID : 55
    Codec ID/Hint : MP3
    Duration : 2h 4mn
    Bit rate mode : Constant
    Bit rate : 96.0 Kbps
    Channel(s) : 2 channels
    Sampling rate : 44.1 KHz
    Stream size : 85.6 MiB (11%)
    Alignment : Split accross interleaves
    Interleave, duration : 67 ms (2.00 video frames)
    Writing library : LAMELAME_MAJOR_VERSI





    Screenshots:







    Attached Files Attached Files



  2. #2
    Mind Reader
    Join Date
    Dec 2006
    Posts
    248
    Post Thanks / Like
    Mentioned
    0 Post(s)
    Tagged
    0 Thread(s)
    Rep Power
    55

    Re: Akaler Sandhane [ RE POST ]

    Baah...Osonkho dhonnobad :applause: - a

  3. #3

    Join Date
    Jan 2007
    Posts
    1,824
    Post Thanks / Like
    Mentioned
    2 Post(s)
    Tagged
    0 Thread(s)
    Rep Power
    106

    Re: Akaler Sandhane [ RE POST ]

    apurba release!!!

  4. #4
    BT Active
    Join Date
    Jan 2008
    Posts
    410
    Post Thanks / Like
    Mentioned
    4 Post(s)
    Tagged
    1 Thread(s)
    Rep Power
    60

    Re: Akaler Sandhane [ RE POST ]

    bah....khoob bhalo release....asankhya dhanyabad.....
    Torrent R Raja " BT " :wave:

  5. #5
    Inactive Staff

    Join Date
    Mar 2009
    Location
    সাত সাগরের ওপারে
    Posts
    3,054
    Post Thanks / Like
    Mentioned
    107 Post(s)
    Tagged
    47 Thread(s)
    Rep Power
    647

    Re: Akaler Sandhane [ RE POST ]

    অসম্ভব ভালো একটা ছবি পোস্ট করার জন্য অনেক ধন্যবাদ ।
    গানে btভুবন ভরিয়ে দেবো............

  6. #6
    Erudite
    Join Date
    Aug 2010
    Location
    New Delhi
    Posts
    151
    Post Thanks / Like
    Mentioned
    0 Post(s)
    Tagged
    1 Thread(s)
    Rep Power
    31

    Thumbs up Re: Akaler Sandhane [ RE POST ]

    thanks......will seed:Rock On:

  7. #7
    BT Krazzy
    Join Date
    Mar 2009
    Location
    BARI
    Posts
    3,412
    Post Thanks / Like
    Mentioned
    25 Post(s)
    Tagged
    32 Thread(s)
    Rep Power
    119

    Re: Akaler Sandhane [ RE POST ]

    great post.:thumbs up:

  8. #8
    BT Addict
    Join Date
    Dec 2008
    Location
    ZURICH/KOLKATA
    Posts
    1,138
    Post Thanks / Like
    Mentioned
    6 Post(s)
    Tagged
    1 Thread(s)
    Rep Power
    60

    Thumbs up Re: Akaler Sandhane [ RE POST ]

    great movie and great share ..........keep it up :applause::applause::applause:
    TRY TO SEED MAXIMUM:angel::angel:

  9. #9
    Erudite
    Join Date
    Oct 2007
    Location
    NY, USA
    Posts
    155
    Post Thanks / Like
    Mentioned
    3 Post(s)
    Tagged
    0 Thread(s)
    Rep Power
    48

    Re: Akaler Sandhane [ RE POST ]

    :applause:Thank you for the great release.:applause:
    Please continue of seed after you are done downloading.

  10. #10
    Inquisitive
    Join Date
    Mar 2009
    Posts
    49
    Post Thanks / Like
    Mentioned
    1 Post(s)
    Tagged
    0 Thread(s)
    Rep Power
    36

    Re: Akaler Sandhane [ RE POST ]

    Please someone seed this...

  11. #11
    Inquisitive
    Join Date
    Feb 2009
    Posts
    3
    Post Thanks / Like
    Mentioned
    0 Post(s)
    Tagged
    0 Thread(s)
    Rep Power
    0

    Re: Akaler Sandhane [ RE POST ]

    many many thanks bandhu

  12. #12
    BT 4* Releaser

    Join Date
    Aug 2011
    Location
    JAJABAR
    Posts
    931
    Post Thanks / Like
    Mentioned
    53 Post(s)
    Tagged
    21 Thread(s)
    Rep Power
    621

    Re: Akaler Sandhane [ RE POST ]

    Very nice choice, thank you very much.

  13. #13
    Luminous
    Join Date
    Jun 2012
    Location
    Bangladesher Kole
    Posts
    60
    Post Thanks / Like
    Mentioned
    1 Post(s)
    Tagged
    4 Thread(s)
    Rep Power
    25

    Re: Akaler Sandhane [ RE POST ]

    Khub sundor 1ti classic release... Dhonnobad tomay...

  14. #14
    Luminous
    Join Date
    Oct 2008
    Posts
    76
    Post Thanks / Like
    Mentioned
    2 Post(s)
    Tagged
    1 Thread(s)
    Rep Power
    0

    Re: Akaler Sandhane [ RE POST ]

    osadharon. onek onek thanx apnake

 

 

Posting Permissions

  • You may not post new threads
  • You may not post replies
  • You may not post attachments
  • You may not edit your posts
  •