Welcome to the Bangla Torrents.

User Tag List

Results 1 to 7 of 7

Thread: tin yeari katha

  1. #1
    Inquisitive
    Join Date
    Apr 2009
    Location
    india
    Posts
    42
    Post Thanks / Like
    Mentioned
    0 Post(s)
    Tagged
    0 Thread(s)
    Rep Power
    35

    Movie tin yeari katha

    Teen Yaari Katha
    Directed by Sudeshna Roy
    Abhijit Guha
    Produced by Arpita Chattopadhyay
    Written by Anindya Bose
    Sudeshna Roy
    Abhijit Guha
    Starring Neel Mukherjee
    Rudraneel Ghosh
    Parambrata Chatterjee
    Gargi Roy Choudhuri
    June Maliah
    Rimjhim Mitra
    Music by Bhoomi
    Cinematography Debnath Gangopadhyay
    Editing by Sujay Dattaray
    Studio Sahara One
    Release date(s) July 2006 (Osian Film Festival)
    Country India
    Language Bengali
    Preceded by Shudhu Tumi
    Followed by Cross Connection

    part 1 tech specification :

    General
    Complete name : H:\download\seed\3 Yarir Katha\1.DAT
    Format : CDXA/MPEG-PS
    File size : 739 MiB
    Duration : 1h 13mn
    Overall bit rate : 1 412 Kbps
    Writing library : Created with Nero

    Video
    ID : 224 (0xE0)
    Format : MPEG Video
    Format version : Version 1
    Format settings, BVOP : Yes
    Format settings, Matrix : Default
    Duration : 1h 13mn
    Bit rate mode : Variable
    Bit rate : 1 159 Kbps
    Nominal bit rate : 1 100 Kbps
    Width : 352 pixels
    Height : 288 pixels
    Display aspect ratio : 4:3
    Frame rate : 25.000 fps
    Standard : PAL
    Color space : YUV
    Bit depth : 8 bits
    Scan type : Progressive
    Bits/(Pixel*Frame) : 0.457
    Stream size : 607 MiB (82%)
    Writing library : Ahead Nero

    part 2 tech specification :

    General
    Complete name : H:\download\seed\3 Yarir Katha\2.DAT
    Format : CDXA/MPEG-PS
    File size : 444 MiB
    Duration : 43mn 55s
    Overall bit rate : 1 412 Kbps
    Writing library : Created with Nero

    Video
    ID : 224 (0xE0)
    Format : MPEG Video
    Format version : Version 1
    Format settings, BVOP : Yes
    Format settings, Matrix : Default
    Duration : 43mn 55s
    Bit rate mode : Constant
    Bit rate : 1 160 Kbps
    Nominal bit rate : 1 100 Kbps
    Width : 352 pixels
    Height : 288 pixels
    Display aspect ratio : 4:3
    Frame rate : 25.000 fps
    Standard : PAL
    Color space : YUV
    Bit depth : 8 bits
    Scan type : Progressive
    Bits/(Pixel*Frame) : 0.458
    Stream size : 364 MiB (82%)
    Writing library : Ahead Nero



















    Continue Seeding Upto Make Another Seeder

    বিপ্লবহোম

    Attached Files Attached Files


  2. 5 Latest Threads by biplabhome

    Collapse/Expand

  3. #2
    Group Moderator

    Join Date
    May 2009
    Location
    বাংলা টরেন্টস
    Posts
    4,379
    Post Thanks / Like
    Mentioned
    569 Post(s)
    Tagged
    90 Thread(s)
    Rep Power
    255

    Re: tin yeari katha

    Plz give some screenshots and technical information about this movie..

    Feel Free to Contact me Via PM or E-mail

  4. #3
    Beautiful Liar
    Join Date
    Jan 2011
    Posts
    926
    Post Thanks / Like
    Mentioned
    1 Post(s)
    Tagged
    47 Thread(s)
    Rep Power
    68

    Re: tin yeari katha

    অনেক বার দেখেছি,কিন্তু বিটিতে মনে হয় এর একটা চালু থ্রেড আছে ওটা দেখেছেন কি? সীডার কি নেই ওটাতে? এটা তো রিপোস্ট,সেটা লিখেদিলে ভালোহতো তো।
    তবে ভালোরিলিজ,ধন্যবাদ শেয়ারের জন্য।

  5. #4
    BT Krazzy
    Join Date
    Mar 2009
    Location
    BARI
    Posts
    3,412
    Post Thanks / Like
    Mentioned
    25 Post(s)
    Tagged
    32 Thread(s)
    Rep Power
    118

    Re: tin yeari katha

    1 month er moddha ei movie ta 2 ber post hoye galo..

  6. #5
    BT ManiaC

    Join Date
    Feb 2009
    Posts
    2,502
    Post Thanks / Like
    Mentioned
    121 Post(s)
    Tagged
    30 Thread(s)
    Rep Power
    182

    Re: tin yeari katha

    Hotat purono boi reseed korchen.... Bhalo..... :-)

  7. #6
    BORN CRIMINAL
    Join Date
    Mar 2009
    Location
    অপরাধের কারখানা বা বিষকুম্ভ বা KCN Factory
    Posts
    1,822
    Post Thanks / Like
    Mentioned
    23 Post(s)
    Tagged
    6 Thread(s)
    Rep Power
    85

    Re: tin yeari katha

    Good up,good movie,chalie jao boss........

  8. #7
    Inquisitive
    Join Date
    Jun 2011
    Posts
    6
    Post Thanks / Like
    Mentioned
    0 Post(s)
    Tagged
    0 Thread(s)
    Rep Power
    0

    Re: tin yeari katha

    could you please seed

 

 

Similar Threads

Thread Forum Posted By Replies Last Post
Sylheti: Tin Khan Kotha Sylheti bromora 5 09-13-2008 12:20 PM
Tin Purush 1-10 DVD1 Bangla TV Serials ~Main~ milton_eng 24 07-31-2006 07:12 PM

Posting Permissions

  • You may not post new threads
  • You may not post replies
  • You may not post attachments
  • You may not edit your posts
  •