Welcome to the Bangla Torrents.

User Tag List

View Poll Results: DO YOU LIKE MY THREAD ?

Voters
5. You may not vote on this poll
  • YES

    3 60.00%
  • NO

    2 40.00%
  • NOT SURE

    0 0%
Results 1 to 11 of 11
  1. #1
    BT Addict

    Join Date
    Dec 2008
    Location
    hooghly
    Posts
    1,265
    Post Thanks / Like
    Mentioned
    39 Post(s)
    Tagged
    23 Thread(s)
    Rep Power
    168

    Movie JONOM JONOMER SATHI @ 574 MB MKV by DJMIX







    CREW
    Phirdous
    Rituporna
    Laboni Sarkar
    Diponkar De
    Koushik Bannerjee
    Shibani Bosu
    Chonchol Ghosh
    and Saswoti



    Director
    Dulal Bhoumik
    Producer
    Rajkumar Damani
    Singer
    Malobha Thankur
    Babul Supriyo



    জনম জনমের সাথী ছায়াছবিটিতে মুখ্য ভুমিকাতে রয়েছেন ফিরদৌস (এখানে জীবন), যিনি গ্রামের এক সাধাসিধে চাষী দিন আনে দিন খান। গ্রামের এক জমিদার রয়েছেন যিনি কলকাতাতে থাকেন এবং তার এখানকার সমস্ত কাজকর্ম দেখাশোনা করেন তার ম্যানেজার যিনি লোকটি সৎ নন।
    জমিদারের মেয়ে (এখানে ঋতুপর্ণা) ছুটিতে গ্রামে আসেন ঘুরতে। যদিও তিনি গ্রাম পছন্দ করতেন না তবুও এই গ্রামকে তিনি ভালবেসে ফেলেন জীবনের কারণে।
    কয়েকদিনের মধ্যে মেয়ের বন্ধুরা গ্রামে চলে আসেন ঘুরতে এবং তারা জীবনের বনের বিয়েতে খেতে যায়।
    এদিকে মেয়ের বাবা মানে জমিদার (এখানে দীপঙ্কর) মেয়ের সঙ্গে জীবনের সম্পর্কের কথা জানতে পেরে মেয়েকে নিয়ে চলে যান কলিকাতা। সেখানে গিয়ে মেয়ের বিবাহ ঠিক করে এক ধনি ব্যাক্তির ছেলের সঙ্গে। মেয়েকে না জানিয়ে দীপঙ্কর মানে মেয়ে আচেতন করে তার বিবাহ সম্পন্ন করেন। ফুলশয্যার রাতে মেয়ের হাতে জীবনের ছবি দেখিতে পেয়ে নব বিবাহিত ধনির ছেলে আত্মহত্যা করেন।
    বৈধব্যের বেশ দেখে থাকতে না পেরে জমিদারের বন মানে মেয়ের পিসি মেয়েকে নিয়ে আবার গ্রামে চলে আসেন।
    এরপরেই ঘটনার ক্লাইম্যাক্স শুরু হয়।
    বাকি ঘটনাটি জানতে হইলে ছায়াছবিটি দেখুন।
    ভাল লাগলে তবেই আমার রেপুটেশন অ্যাড করবেন এবং থাঙ্কস দেবেন।
    ধন্যবাদ
    ডিজেমিক্স



    Complete name : JONOM JONOMER SATHI.mkv
    Format : Matroska
    File size : 574 MiB
    Duration : 2h 21mn
    Overall bit rate : 568 Kbps
    Writing application : Lavf52.0.0
    Writing library : Lavf52.0.0



    ID : 1
    Format : MPEG-4 Visual
    Format profile : simple@l1
    Format settings, Matrix : Default (H.263)
    Codec ID : V_MPEG4/ISO/ASP
    Codec ID/Info : Advanced Simple Profile
    Duration : 2h 21mn
    Bit rate : 493 Kbps
    Width : 332 pixels
    Height : 168 pixels
    Display aspect ratio : 1.976
    Frame rate mode : Constant
    Frame rate : 25.000 fps
    Color space : YUV
    Chroma subsampling : 4:2:0
    Bit depth : 8 bits
    Scan type : Progressive
    Compression mode : Lossy
    Bits/(Pixel*Frame) : 0.353
    Stream size : 498 MiB (87%)
    Writing library : Lavc52.48.0
    Language : English



    Format : MPEG Audio
    Format version : Version 1
    Format profile : Layer 3
    Mode : Joint stereo
    Mode extension : MS Stereo
    Codec ID : A_MPEG/L3
    Codec ID/Hint : MP3
    Duration : 2h 21mn
    Bit rate mode : Constant
    Bit rate : 64.0 Kbps
    Channel(s) : 2 channels
    Sampling rate : 48.0 KHz
    Compression mode : Lossy
    Stream size : 64.6 MiB (11%)
    Language : Bengali










    Attached Files Attached Files



  2. #2
    BanglaTorrents Releaser

    Join Date
    Apr 2009
    Location
    যেখানে থাকি সেখানে
    Posts
    2,879
    Post Thanks / Like
    Mentioned
    130 Post(s)
    Tagged
    68 Thread(s)
    Rep Power
    348

    Re: JONOM JONOMER SATHI @ 574 MB MKV by DJMIX

    Khub sundor post....synopsis ta khub bhalo hoyeche.....porle download kortei hobe....!!!!!!!!!!
    Some Members of BT are sharing my content to a paid site for business, I always believe in sharing! so I do not give any Watermark or Password, but that definitely not to encourage business.
    So I will restrict myself of releasing some exclusive contents to BT
    SORRY!!!


  3. #3
    Inactive Staff

    Join Date
    Mar 2009
    Location
    সাত সাগরের ওপারে
    Posts
    3,054
    Post Thanks / Like
    Mentioned
    107 Post(s)
    Tagged
    47 Thread(s)
    Rep Power
    647

    Re: JONOM JONOMER SATHI @ 574 MB MKV by DJMIX

    খুব সুন্দর উপস্থাপনা।

  4. #4
    Inactive Staff

    Join Date
    Nov 2008
    Location
    BT
    Posts
    3,344
    Post Thanks / Like
    Mentioned
    212 Post(s)
    Tagged
    59 Thread(s)
    Rep Power
    155

    Re: JONOM JONOMER SATHI @ 574 MB MKV by DJMIX

    খুব সুন্দর উপস্থাপনা... আর সিনপসিস টা পড়ে তো দারুন লাগলো...

  5. #5
    Forum Moderator

    Join Date
    Apr 2007
    Location
    Kolkata
    Posts
    6,941
    Post Thanks / Like
    Mentioned
    286 Post(s)
    Tagged
    87 Thread(s)
    Rep Power
    684

    Re: JONOM JONOMER SATHI @ 574 MB MKV by DJMIX

    Khub valo release....... keep it up...........

  6. #6
    BanglaTorrents Releaser
    Join Date
    Jan 2009
    Location
    Kolkata
    Posts
    3,616
    Post Thanks / Like
    Mentioned
    8 Post(s)
    Tagged
    2 Thread(s)
    Rep Power
    141

    Re: JONOM JONOMER SATHI @ 574 MB MKV by DJMIX

    synopsis ta pore mvi ta dekhar aagroho bere gelo....

  7. #7
    BT Addict
    Join Date
    Nov 2008
    Posts
    1,181
    Post Thanks / Like
    Mentioned
    0 Post(s)
    Tagged
    1 Thread(s)
    Rep Power
    65

    Re: JONOM JONOMER SATHI @ 574 MB MKV by DJMIX

    dhonnobad DJMIX, khub valo,:applause::applause: keep posting

  8. #8
    BT Addict

    Join Date
    Dec 2008
    Location
    hooghly
    Posts
    1,265
    Post Thanks / Like
    Mentioned
    39 Post(s)
    Tagged
    23 Thread(s)
    Rep Power
    168

    Re: JONOM JONOMER SATHI @ 574 MB MKV by DJMIX

    @all thanks you very much..

  9. #9
    BT Addict

    Join Date
    Dec 2008
    Location
    hooghly
    Posts
    1,265
    Post Thanks / Like
    Mentioned
    39 Post(s)
    Tagged
    23 Thread(s)
    Rep Power
    168

    Re: JONOM JONOMER SATHI @ 574 MB MKV by DJMIX

    @all gotokal rate seed korte na parar jonno dukhito..
    truti marjona korben..
    asole net er problem er jonno seed korite pari ni...
    ajke obossoi seed korbo sokole ektu dhoirjo dhorben..
    Dhonnobad
    DJMIX

  10. #10
    BT Addict

    Join Date
    Dec 2008
    Location
    hooghly
    Posts
    1,265
    Post Thanks / Like
    Mentioned
    39 Post(s)
    Tagged
    23 Thread(s)
    Rep Power
    168

    Re: JONOM JONOMER SATHI @ 574 MB MKV by DJMIX

    @all gotokal rate seed korte na parar jonno dukhito..
    truti marjona korben..
    asole net er problem er jonno seed korite pari ni...
    ajke eimatro mane dupur 3 ter somoy amar net thik hoyeche ...
    ajke obossoi seed korbo sokole ektu dhoirjo dhorben..
    asa kori ajke rate ar kono probs hobe na..
    Dhonnobad
    DJMIX

  11. #11
    BT Addict

    Join Date
    Dec 2008
    Location
    hooghly
    Posts
    1,265
    Post Thanks / Like
    Mentioned
    39 Post(s)
    Tagged
    23 Thread(s)
    Rep Power
    168

    Re: JONOM JONOMER SATHI @ 574 MB MKV by DJMIX

    jar ei movie ti download hoye geche take onurodh korbo jeno seed koren please ekar pokkhe seed korata just impossible ..
    please keep seeding..
    Thanks

 

 

Posting Permissions

  • You may not post new threads
  • You may not post replies
  • You may not post attachments
  • You may not edit your posts
  •