Welcome to the Bangla Torrents.

User Tag List

Results 1 to 9 of 9
  1. #1
    BT * Releaser

    Join Date
    Mar 2009
    Location
    Moner Kachakachi.
    Posts
    2,079
    Post Thanks / Like
    Mentioned
    66 Post(s)
    Tagged
    20 Thread(s)
    Rep Power
    344

    Ekai eksho (bengali dub) [santanupatra]

    "santanupatra" Presenting...

    EKAI EKSHO



    CAST & CREW

    Cast : Mahesh Babu, Anuskka, Prakash Raj, Subbaraju
    Director : Trivikram
    Music : Manisharmaa



    Complete name : EKAI EKSHO.MPG
    Format : MPEG-PS
    File size : 1.48 GiB
    Duration : 2h 32mn
    Overall bit rate : 1 393 Kbps

    Video
    ID : 224 (0xE0)
    Format : MPEG Video
    Format version : Version 1
    Format settings, BVOP : Yes
    Format settings, Matrix : Default
    Duration : 2h 32mn
    Bit rate mode : Constant
    Bit rate : 1 150 Kbps
    Width : 352 pixels
    Height : 288 pixels
    Display aspect ratio : 4:3
    Frame rate : 25.000 fps
    Standard : PAL
    Color space : YUV
    Bit depth : 8 bits
    Scan type : Progressive
    Bits/(Pixel*Frame) : 0.454
    Stream size : 1.21 GiB (82%)

    Audio
    ID : 192 (0xC0)
    Format : MPEG Audio
    Format version : Version 1
    Format profile : Layer 2
    Duration : 2h 32mn
    Bit rate mode : Constant
    Bit rate : 224 Kbps
    Channel(s) : 2 channels
    Sampling rate : 44.1 KHz
    Stream size : 244 MiB (16%)





    SEEDING TIME - 24hrs. EXCEPT POWER PROBLEM

    PLEASE HIT "Thanks" and "Add Repu" If You Like My Post


    PLEASE SEED AFTER DOWNLOAD







  2. #2
    BT Krazzy

    Join Date
    May 2009
    Location
    এই তো আমি
    Posts
    3,804
    Post Thanks / Like
    Mentioned
    287 Post(s)
    Tagged
    103 Thread(s)
    Rep Power
    375

    Re: Ekai eksho (bengali dub) [santanupatra]

    1st thx janate pere bhalo laglo. tobe ei movie tar bengali dub berieche jantam ta.

  3. #3
    BT ManiaC
    Join Date
    Jul 2010
    Location
    neel akash
    Posts
    1,611
    Post Thanks / Like
    Mentioned
    8 Post(s)
    Tagged
    31 Thread(s)
    Rep Power
    70

    Re: Ekai eksho (bengali dub) [santanupatra]

    darun release ..amaro thanks janate pere darun lagche !!!

  4. #4
    Banned
    Join Date
    Feb 2008
    Location
    Chennai
    Posts
    532
    Post Thanks / Like
    Mentioned
    4 Post(s)
    Tagged
    0 Thread(s)
    Rep Power
    0

    Re: Ekai eksho (bengali dub) [santanupatra]

    Dubbed Bengali cinema?Originally cinemata kothakar?

  5. #5
    Erudite
    Join Date
    Feb 2009
    Location
    ঢাকা, বাংলাদেশ
    Posts
    190
    Post Thanks / Like
    Mentioned
    1 Post(s)
    Tagged
    0 Thread(s)
    Rep Power
    50

    Re: Ekai eksho (bengali dub) [santanupatra]

    eta ki hindi chobir bangla dubbing?

  6. #6
    storm
    Join Date
    May 2009
    Location
    kolkata
    Posts
    360
    Post Thanks / Like
    Mentioned
    2 Post(s)
    Tagged
    0 Thread(s)
    Rep Power
    47

    Re: Ekai eksho (bengali dub) [santanupatra]

    Quote Originally Posted by kaktarua View Post
    eta ki hindi chobir bangla dubbing?
    na dada, eta TAMIL ba TELEGU cinemar dub kora bengali version...

  7. #7
    BORN CRIMINAL
    Join Date
    Mar 2009
    Location
    অপরাধের কারখানা বা বিষকুম্ভ বা KCN Factory
    Posts
    1,822
    Post Thanks / Like
    Mentioned
    23 Post(s)
    Tagged
    6 Thread(s)
    Rep Power
    86

    Re: Ekai eksho (bengali dub) [santanupatra]

    erkom movie amar kache ekdom natoon,thanks for sharing.

  8. #8
    BT ManiaC
    Join Date
    Jul 2010
    Location
    neel akash
    Posts
    1,611
    Post Thanks / Like
    Mentioned
    8 Post(s)
    Tagged
    31 Thread(s)
    Rep Power
    70

    Re: Ekai eksho (bengali dub) [santanupatra]

    darun release !! me ta hebbi dekte ...!!! ha ha ..:-p :-D

  9. #9
    BanglaTorrents Releaser
    Join Date
    Jan 2009
    Location
    Kolkata
    Posts
    3,616
    Post Thanks / Like
    Mentioned
    8 Post(s)
    Tagged
    2 Thread(s)
    Rep Power
    141

    Re: Ekai eksho (bengali dub) [santanupatra]

    onek dhonnobad...

 

 

Posting Permissions

  • You may not post new threads
  • You may not post replies
  • You may not post attachments
  • You may not edit your posts
  •