Welcome to the Bangla Torrents.

User Tag List

Results 1 to 4 of 4
  1. #1
    BT * Releaser

    Join Date
    Mar 2009
    Location
    Moner Kachakachi.
    Posts
    2,083
    Post Thanks / Like
    Mentioned
    66 Post(s)
    Tagged
    20 Thread(s)
    Rep Power
    345

    Sri radhar manbhanjan (kirtan vcd rip) [santanupatra]

    "santanupatra" Presenting...

    SRI RADHAR MANBHANJAN
    By SUMAN BHATTACHARYA










    Format : MPEG-PS
    File size : 527 MiB
    Duration : 1h 0mn
    Overall bit rate : 1 215 Kbps

    Video
    ID : 224 (0xE0)
    Format : MPEG Video
    Format version : Version 1
    Format settings, BVOP : Yes
    Format settings, Matrix : Default
    Duration : 1h 0mn
    Bit rate mode : Variable
    Bit rate : 967 Kbps
    Nominal bit rate : 1 100 Kbps
    Width : 352 pixels
    Height : 240 pixels
    Display aspect ratio : 4:3
    Frame rate : 29.970 fps
    Standard : NTSC
    Color space : YUV
    Bit depth : 8 bits
    Scan type : Progressive
    Bits/(Pixel*Frame) : 0.382
    Stream size : 419 MiB (80%)

    Audio
    ID : 192 (0xC0)
    Format : MPEG Audio
    Format version : Version 1
    Format profile : Layer 2
    Duration : 1h 0mn
    Bit rate mode : Constant
    Bit rate : 224 Kbps
    Channel(s) : 2 channels
    Sampling rate : 44.1 KHz
    Video delay : -33ms
    Stream size : 97.0 MiB (18%)

    SEEDING TIME - 24hrs. EXCEPT POWER PROBLEM

    PLEASE HIT "Thanks" and "Add Repu" If You Like My Post

    PLEASE SEED AFTER DOWNLOAD




  2. #2
    BanglaTorrents Releaser
    Join Date
    Jan 2009
    Location
    Kolkata
    Posts
    3,616
    Post Thanks / Like
    Mentioned
    8 Post(s)
    Tagged
    2 Thread(s)
    Rep Power
    141

    Re: Sri radhar manbhanjan (kirtan vcd rip) [santanupatra]

    dhonnobad share korar jonno

  3. #3
    Banned
    Join Date
    Feb 2008
    Location
    Chennai
    Posts
    532
    Post Thanks / Like
    Mentioned
    4 Post(s)
    Tagged
    0 Thread(s)
    Rep Power
    0

    Re: Sri radhar manbhanjan (kirtan vcd rip) [santanupatra]

    bah bah darun release.........Keep posting.Amra tomar pasei achi.............presentation tao sundor..........

  4. #4
    BanglaTorrents Releaser

    Join Date
    Apr 2009
    Location
    কংক্রিটের জঙ্গলে
    Posts
    1,134
    Post Thanks / Like
    Mentioned
    47 Post(s)
    Tagged
    21 Thread(s)
    Rep Power
    215

    Re: Sri radhar manbhanjan (kirtan vcd rip) [santanupatra]

    Bhalo release korechen. Amar mayer khub pachander. Thank u. Pore DL korchi.

 

 

Posting Permissions

  • You may not post new threads
  • You may not post replies
  • You may not post attachments
  • You may not edit your posts
  •