Welcome to the Bangla Torrents.

User Tag List

Results 1 to 5 of 5
  1. #1
    BT * Releaser

    Join Date
    Mar 2009
    Location
    Moner Kachakachi.
    Posts
    2,079
    Post Thanks / Like
    Mentioned
    66 Post(s)
    Tagged
    20 Thread(s)
    Rep Power
    344

    Movie Ramayan (full tv series) - episode - 106 - 108 (hq) [santanupatra]

    "SANTANU PATRA" Presenting...

    RAMAYAN - BENGALI - (FULL TV SERIES)
    EPISODE - (106 - 108)






    EPISODE - 106


    EPISODE - 107


    EPISODE - 108




    Video
    ID : 0
    Format : MPEG-4 Visual
    Format profile : Advanced Simple@L5
    Format settings, BVOP : Yes
    Format settings, QPel : No
    Format settings, GMC : No warppoints
    Format settings, Matrix : Default (H.263)
    Codec ID : XVID
    Codec ID/Hint : XviD
    Bit rate : 626 Kbps
    Width : 640 pixels
    Height : 480 pixels
    Display aspect ratio : 4:3
    Frame rate : 25.000 fps
    Standard : PAL
    Color space : YUV
    Chroma subsampling : 4:2:0
    Bit depth : 8 bits
    Scan type : Progressive
    Bits/(Pixel*Frame) : 0.247
    Stream size : 92.8 MiB (82%)
    Writing library : XviD 1.2.1 (UTC 2008-12-04)

    Audio
    ID : 1
    Format : MPEG Audio
    Format version : Version 1
    Format profile : Layer 3
    Mode : Joint stereo
    Mode extension : MS Stereo
    Codec ID : 55
    Codec ID/Hint : MP3
    Bit rate mode : Constant
    Bit rate : 128 Kbps
    Channel(s) : 2 channels
    Sampling rate : 44.1 KHz
    Video delay : 40ms
    Stream size : 19.0 MiB (17%)
    Alignment : Aligned on interleaves
    Interleave, duration : 26 ms (0.65 video frame)
    Interleave, preload duration : 522 ms


    SEEDING TIME - 24hrs. EXCEPT POWER PROBLEM

    PLEASE HIT "Thanks" and "Add Repu" If You Like My Post

    PLEASE SEED AFTER DOWNLOAD




  2. #2
    Deferential
    Join Date
    Nov 2009
    Location
    Kolkata
    Posts
    367
    Post Thanks / Like
    Mentioned
    0 Post(s)
    Tagged
    0 Thread(s)
    Rep Power
    39

    Re: Ramayan (full tv series) - episode - 106 - 108 (hq) [santanupatra]

    Valo post.......Keep it up....

  3. #3
    BanglaTorrents Releaser

    Join Date
    May 2009
    Location
    Chinsurah,Hooghly
    Posts
    1,552
    Post Thanks / Like
    Mentioned
    13 Post(s)
    Tagged
    9 Thread(s)
    Rep Power
    147

    Re: Ramayan (full tv series) - episode - 106 - 108 (hq) [santanupatra]

    Nice Sharing continues.....Thanks.

  4. #4
    BT ManiaC

    Join Date
    Jun 2009
    Location
    BT
    Posts
    2,965
    Post Thanks / Like
    Mentioned
    67 Post(s)
    Tagged
    24 Thread(s)
    Rep Power
    173

    Re: Ramayan (full tv series) - episode - 106 - 108 (hq) [santanupatra]

    thanks for upload........:)

  5. #5
    BanglaTorrents Releaser
    Join Date
    Jan 2009
    Location
    Kolkata
    Posts
    3,616
    Post Thanks / Like
    Mentioned
    8 Post(s)
    Tagged
    2 Thread(s)
    Rep Power
    141

    Re: Ramayan (full tv series) - episode - 106 - 108 (hq) [santanupatra]

    keep sharing.......

 

 

Posting Permissions

  • You may not post new threads
  • You may not post replies
  • You may not post attachments
  • You may not edit your posts
  •