Welcome to the Bangla Torrents.

User Tag List

Results 1 to 15 of 15
  1. #1
    BT * Releaser

    Join Date
    Nov 2010
    Location
    Aarshinagar, West Bengal
    Posts
    2,510
    Post Thanks / Like
    Mentioned
    5 Post(s)
    Tagged
    7 Thread(s)
    Rep Power
    207

    Movie TUMI ROBE NIROBE ~ 2010 ~ Srilekha-Rudranil-Priyanka ~ 717 MB ~ {S.N.Khan}

    এস.এন.খান-এর নিবেদন...

    জিৎ গোস্বামী পরিচালিত বাংলা ছায়াছবি

    " তুমি রবে নীরবে (২০১০) "


    আবহসঙ্গীত : জিৎ গোস্বামী
    প্রযোজনা : বিপিন মাগিয়া


    * অভিনয়ে *
    রুদ্রনীল ঘোষ
    প্রিয়াংকা মৈত্র
    শ্রীলেখা মিত্র
    অরুন চক্রবর্তী
    মৌসুমী সাহা
    সোমা চক্রবর্তী
    পার্থ সারথী দেব
    সুতনুকা সরকার
    আকাশ চক্রবর্তী


    * টিম : তুমি রবে নীরবে *
    কাহিনী : জিৎ গোস্বামী
    চিত্রনাট্য এবং সংলাপ : রাজেন্দ্র
    প্রধান সহকারী পরিচালনা : অভিজিৎ নায়েক
    সহকারী পরিচলনা : রাজা
    চিত্রগ্রাহক : শমীক তালুকদার
    সম্পাদনা : নারায়ন বিশ্বাস
    রূপ-সজ্জা : অমিত গাঙ্গুলী
    শিল্প নির্দেশনা : অখিলেশ চন্দ্র
    শব্দ গ্রহন : শঙ্খ
    কেশ-বিন্যাস : প্রতিমা, বীণা


    * ফাইলের তথ্য *

    HTML Code:
    General
    Format                           : Matroska
    File size                        : 719 MiB
    Duration                         : 2h 1mn
    Overall bit rate                 : 829 Kbps
    Encoded date                     : UTC 2011-08-05 18:17:23
    Writing application              : AVSMatroskaFile
    Writing library                  : libebml v0.7.7 + libmatroska v0.8.1
    
    Video
    ID                               : 1
    Format                           : AVC
    Format/Info                      : Advanced Video Codec
    Format profile                   : Main@L5.1
    Format settings, CABAC           : Yes
    Format settings, ReFrames        : 1 frame
    Codec ID                         : V_MPEG4/ISO/AVC
    Duration                         : 2h 1mn
    Bit rate                         : 492 Kbps
    Width                            : 720 pixels
    Height                           : 480 pixels
    Display aspect ratio             : 3:2
    Frame rate                       : 29.970 fps
    Standard                         : NTSC
    Color space                      : YUV
    Chroma subsampling               : 4:2:0
    Bit depth                        : 8 bits
    Scan type                        : Progressive
    Bits/(Pixel*Frame)               : 0.048
    Stream size                      : 427 MiB (59%)
    
    Audio
    ID                               : 2
    Format                           : MPEG Audio
    Format version                   : Version 1
    Format profile                   : Layer 3
    Codec ID                         : A_MPEG/L3
    Codec ID/Hint                    : MP3
    Duration                         : 2h 1mn
    Bit rate mode                    : Constant
    Bit rate                         : 320 Kbps
    Channel(s)                       : 2 channels
    Sampling rate                    : 44.1 KHz
    Compression mode                 : Lossy
    Stream size                      : 278 MiB (39%)
    Writing library                  : LAMELAME_MAJOR_VERSI
    * টুকরো ছবি *




    ************************************************** *****
    Attached Files Attached Files



  2. #2
    Deferential
    Join Date
    Dec 2010
    Location
    Sonar Bangla
    Posts
    292
    Post Thanks / Like
    Mentioned
    21 Post(s)
    Tagged
    7 Thread(s)
    Rep Power
    28

    Re: TUMI ROBE NIROBE ~ 2010 ~ Srilekha-Rudranil-Priyanka ~ 717 MB ~ {S.N.Khan} [Re-Po

    nice share!

  3. #3
    BT Addict
    Join Date
    Feb 2010
    Posts
    1,438
    Post Thanks / Like
    Mentioned
    0 Post(s)
    Tagged
    0 Thread(s)
    Rep Power
    59

    Re: TUMI ROBE NIROBE ~ 2010 ~ Srilekha-Rudranil-Priyanka ~ 717 MB ~ {S.N.Khan} [Re-Po

    thanks for this nice release.....

  4. #4
    BT Krazzy
    Join Date
    Mar 2009
    Location
    BARI
    Posts
    3,412
    Post Thanks / Like
    Mentioned
    25 Post(s)
    Tagged
    32 Thread(s)
    Rep Power
    117

    Re: TUMI ROBE NIROBE ~ 2010 ~ Srilekha-Rudranil-Priyanka ~ 717 MB ~ {S.N.Khan} [Re-Po

    nice share thanks..

  5. #5
    Erudite
    Join Date
    Dec 2008
    Posts
    215
    Post Thanks / Like
    Mentioned
    3 Post(s)
    Tagged
    0 Thread(s)
    Rep Power
    48

    Re: TUMI ROBE NIROBE ~ 2010 ~ Srilekha-Rudranil-Priyanka ~ 717 MB ~ {S.N.Khan}

    great upload dada

  6. #6
    Hakuna Mata Ta....
    Join Date
    Jun 2010
    Location
    Chinsurah
    Posts
    231
    Post Thanks / Like
    Mentioned
    3 Post(s)
    Tagged
    1 Thread(s)
    Rep Power
    33

    Re: TUMI ROBE NIROBE ~ 2010 ~ Srilekha-Rudranil-Priyanka ~ 717 MB ~ {S.N.Khan}

    Darun Upload... eta ami dekhini aage..

  7. #7
    Inquisitive
    Join Date
    Dec 2007
    Posts
    20
    Post Thanks / Like
    Mentioned
    0 Post(s)
    Tagged
    0 Thread(s)
    Rep Power
    41

    Re: TUMI ROBE NIROBE ~ 2010 ~ Srilekha-Rudranil-Priyanka ~ 717 MB ~ {S.N.Khan}

    bhalo besh bhalo kaaj..

  8. #8
    Hakuna Mata Ta....
    Join Date
    Jun 2010
    Location
    Chinsurah
    Posts
    231
    Post Thanks / Like
    Mentioned
    3 Post(s)
    Tagged
    1 Thread(s)
    Rep Power
    33

    Re: TUMI ROBE NIROBE ~ 2010 ~ Srilekha-Rudranil-Priyanka ~ 717 MB ~ {S.N.Khan}

    Anek din por eta diye khata khulchhi aajke... Nice Release..

  9. #9
    Luminous
    Join Date
    Oct 2008
    Posts
    90
    Post Thanks / Like
    Mentioned
    0 Post(s)
    Tagged
    0 Thread(s)
    Rep Power
    38

    Re: TUMI ROBE NIROBE ~ 2010 ~ Srilekha-Rudranil-Priyanka ~ 717 MB ~ {S.N.Khan}

    You cannot post anything and everything under DVD section.The picture quality is damn bad and close to a camrip...With a size of more than 700mb a much higher quality is expected..

  10. #10
    Erudite
    Join Date
    Aug 2009
    Location
    Oman
    Posts
    244
    Post Thanks / Like
    Mentioned
    2 Post(s)
    Tagged
    0 Thread(s)
    Rep Power
    40

    Re: TUMI ROBE NIROBE ~ 2010 ~ Srilekha-Rudranil-Priyanka ~ 717 MB ~ {S.N.Khan}

    thanks a ton.

  11. #11
    ~Inactive Member~
    Join Date
    Sep 2010
    Location
    কোলকাতা
    Posts
    377
    Post Thanks / Like
    Mentioned
    13 Post(s)
    Tagged
    7 Thread(s)
    Rep Power
    31

    Re: TUMI ROBE NIROBE ~ 2010 ~ Srilekha-Rudranil-Priyanka ~ 717 MB ~ {S.N.Khan}

    thanks for sharing

  12. #12
    Inquisitive
    Join Date
    Feb 2007
    Posts
    50
    Post Thanks / Like
    Mentioned
    3 Post(s)
    Tagged
    1 Thread(s)
    Rep Power
    0

    Re: TUMI ROBE NIROBE ~ 2010 ~ Srilekha-Rudranil-Priyanka ~ 717 MB ~ {S.N.Khan}

    bhalo post...onek dhannobad for such nice post

  13. #13

    Join Date
    Jan 2007
    Posts
    1,824
    Post Thanks / Like
    Mentioned
    2 Post(s)
    Tagged
    0 Thread(s)
    Rep Power
    103

    Re: TUMI ROBE NIROBE ~ 2010 ~ Srilekha-Rudranil-Priyanka ~ 717 MB ~ {S.N.Khan}

    thnx for the movie

  14. #14
    Inquisitive
    Join Date
    Oct 2008
    Posts
    28
    Post Thanks / Like
    Mentioned
    0 Post(s)
    Tagged
    0 Thread(s)
    Rep Power
    36

    Re: TUMI ROBE NIROBE ~ 2010 ~ Srilekha-Rudranil-Priyanka ~ 717 MB ~ {S.N.Khan}

    bahlo laglo thanks

  15. #15
    Luminous
    Join Date
    Jan 2009
    Location
    France
    Posts
    63
    Post Thanks / Like
    Mentioned
    0 Post(s)
    Tagged
    0 Thread(s)
    Rep Power
    35

    Re: TUMI ROBE NIROBE ~ 2010 ~ Srilekha-Rudranil-Priyanka ~ 717 MB ~ {S.N.Khan}

    darun post... oshonkhyo dhonyobad... :)

 

 

Posting Permissions

  • You may not post new threads
  • You may not post replies
  • You may not post attachments
  • You may not edit your posts
  •