Welcome to the Bangla Torrents.

User Tag List

Results 1 to 6 of 6
  1. #1
    BT 3* Releaser

    Join Date
    May 2007
    Location
    prithibir buke...
    Posts
    1,750
    Post Thanks / Like
    Mentioned
    47 Post(s)
    Tagged
    17 Thread(s)
    Rep Power
    458

    Parineeta(1969)_An Ajoy Kar Film.TvRip.913Mb.Avi

    Parineeta (1969)



    Credits

    Banner

    CHITRALIPI FILMS


    Story
    SARAT CHANDRA CHATTOPADHYAY

    Direction
    AJOY KAR


    Music

    HEMANTA MUKHOPADHYAY

    Photography

    BISHU CHAKROBORTY






    SOUMITRA CHATTERJEE
    MOUSUMI CHATTOPADHYAY
    BIKASH RAY
    CHHAYA DEVI
    SHAMIT BANJA
    KAMAL MITRA
    SAILEN MUKHOPADHYAY
    BIJON BHATTACHARYA
    ANUBHA GUPTA
    JAMUNA SINGHA
    GITA DEY
    ROMI CHOWDHURY









    Format : AVI
    Format/Info : Audio Video Interleave
    File size : 913 MiB
    Duration : 2h 3mn
    Overall bit rate : 1 037 Kbps


    Video
    ID : 0
    Format : MPEG-4 Visual
    Format profile : Advanced Simple@L5
    Format settings, BVOP : Yes
    Format settings, QPel : Yes
    Format settings, GMC : No warppoints
    Format settings, Matrix : Default (MPEG)
    Muxing mode : Packed bitstream
    Codec ID : XVID
    Codec ID/Hint : XviD
    Duration : 2h 3mn
    Bit rate : 899 Kbps
    Width : 720 pixels
    Height : 576 pixels
    Display aspect ratio : 4:3
    Frame rate : 25.000 fps
    Standard : PAL
    Color space : YUV
    Chroma subsampling : 4:2:0
    Bit depth : 8 bits
    Scan type : Progressive
    Bits/(Pixel*Frame) : 0.087
    Stream size : 792 MiB (87%)
    Writing library : XviD 1.2.1 (UTC 2008-12-04)

    Audio
    ID : 1
    Format : MPEG Audio
    Format version : Version 1
    Format profile : Layer 3
    Mode : Joint stereo
    Mode extension : MS Stereo
    Codec ID : 55
    Codec ID/Hint : MP3
    Duration : 2h 3mn
    Bit rate mode : Constant
    Bit rate : 128 Kbps
    Channel(s) : 2 channels
    Sampling rate : 44.1 KHz
    Stream size : 113 MiB (12%)
    Alignment : Split accross interleaves
    Interleave, duration : 40 ms (1.00 video frame)
    Interleave, preload duration : 500 ms



    Seeding Time
    Round The Clock







    Attached Files Attached Files
    • This post requires you to click the Thanks button to see Attachments.
    Last edited by Pothbhola; 08-25-2012 at 10:53 AM.

    ...তুমি যে ট্র্যাফিক সিগনালে ঝরা
    বেচারা রবির গান
    যদিও করের টাকায় নাচেন
    দামাল শারুক খান...


  2. 5 Latest Threads by Pothbhola

    Collapse/Expand

  3. #2
    BT ManiaC
    Join Date
    Jan 2011
    Posts
    2,880
    Post Thanks / Like
    Mentioned
    73 Post(s)
    Tagged
    24 Thread(s)
    Rep Power
    107

    Re: Parineeta(1969)_An Ajoy Kar Film.TvRip.913Mb.Avi

    khub sundor collection ta....... nice

  4. #3
    Inactive Staff

    Join Date
    Nov 2008
    Location
    BT
    Posts
    3,339
    Post Thanks / Like
    Mentioned
    210 Post(s)
    Tagged
    59 Thread(s)
    Rep Power
    153

    Re: Parineeta(1969)_An Ajoy Kar Film.TvRip.913Mb.Avi

    মনকাড়া রিলিস দাদা । অনেক ধন্যবাদ নেবেন ।


    Use www.btpics.com : Our Own Imagehosting Site for Uploading Your Images & Screenshots

    -: Contact us :-
    Moderators : btmods@banglatorrents.com
    Support Staffs : btsupport@banglatorrents.com


  5. #4
    Bad Boy Of BT
    Join Date
    Jul 2011
    Location
    Computer
    Posts
    780
    Post Thanks / Like
    Mentioned
    61 Post(s)
    Tagged
    17 Thread(s)
    Rep Power
    45

    Re: Parineeta(1969)_An Ajoy Kar Film.TvRip.913Mb.Avi

    Khub rare ekta movie upload korle dada....

    Thanks...

  6. #5
    BT Krazzy
    Join Date
    Mar 2009
    Location
    BARI
    Posts
    3,412
    Post Thanks / Like
    Mentioned
    25 Post(s)
    Tagged
    32 Thread(s)
    Rep Power
    117

    Re: Parineeta(1969)_An Ajoy Kar Film.TvRip.913Mb.Avi

    movie ta onak bar dekhechi....amar kache movie ta chilo na..download e dilam..thanks for share...

  7. #6
    রাখাল বালক
    Join Date
    Sep 2010
    Location
    Khatra Bankura
    Posts
    501
    Post Thanks / Like
    Mentioned
    12 Post(s)
    Tagged
    1 Thread(s)
    Rep Power
    53

    Re: Parineeta(1969)_An Ajoy Kar Film.TvRip.913Mb.Avi

    eai film ta dekhar icche onek din chilo kintu dekhte paini.jaihok ebar dekhbo :)

 

 

Posting Permissions

  • You may not post new threads
  • You may not post replies
  • You may not post attachments
  • You may not edit your posts
  •