Welcome to the Bangla Torrents.

User Tag List

Results 1 to 8 of 8
  1. #1
    BT 2* Releaser

    Join Date
    Feb 2011
    Location
    KOLKATA
    Posts
    2,935
    Post Thanks / Like
    Mentioned
    81 Post(s)
    Tagged
    34 Thread(s)
    Rep Power
    562

    Movie Jani dushman.horror movie dubbed.vcdrip.703mb.avi.[karanjai1111]



    ...BT XCLUSIVE...






    CAST/CREW

    Director & Producer:-Rajkumar Kohli
    Music:-Laxmikant Pyarelal
    Writers:Inder Raj Anand (dialogue), Charandas Shokh (screenplay)
    Stars:- Sunil Dutt, Sanjeev Kumar,Shatrughan Sinha,Sanjeev Kumar,Neetu Singh,Rekha,Jeetendra And Many more



    Jwala Prasad is to marry the girl of his dreams. On the day of the marriage, she is dressed all in red, as is the tradition in India. Just before the wedding she slips off to meet her real lover. When Jwala finds out, be is so enraged at he turns into a monster and kills both the to-be bride and her male friend. The saga does not end here, and this monster continues to terrorize the region, first abducting brides dressed in red just before the wedding procession stops at a Mandir (temple). When a to-be groom finally confronts and kills the monster, it leaves the body of Jwala Prasad and possesses the body of it's killer. And the terror continues. Years late another male has now killed this creature, and the monster has re-possessed it's body, and it's again on the rampage. The police and men of this region do confront this creature, but find out it is invincible, bullets cannot harm it...




















    Code:
    Video
    
    ID                               : 0
    Format                           : MPEG-4 Visual
    Format profile                   : Simple@L3
    Format settings, BVOP            : No
    Format settings, QPel            : No
    Format settings, GMC             : No warppoints
    Format settings, Matrix          : Default (H.263)
    Codec ID                         : XVID
    Codec ID/Hint                    : XviD
    Duration                         : 2h 30mn
    Bit rate                         : 512 Kbps
    Width                            : 640 pixels
    Height                           : 480 pixels
    Display aspect ratio             : 4:3
    Frame rate                       : 25.000 fps
    Color space                      : YUV
    Chroma subsampling               : 4:2:0
    Bit depth                        : 8 bits
    Scan type                        : Progressive
    Compression mode                 : Lossy
    Bits/(Pixel*Frame)               : 0.067
    Stream size                      : 553 MiB (79%)
    Writing library                  : XviD 1.2.1 (UTC 2008-12-04)

    Code:
    Audio
    ID                               : 1
    Format                           : MPEG Audio
    Format version                   : Version 1
    Format profile                   : Layer 3
    Mode                             : Joint stereo
    Mode extension                   : MS Stereo
    Codec ID                         : 55
    Codec ID/Hint                    : MP3
    Duration                         : 2h 30mn
    Bit rate mode                    : Constant
    Bit rate                         : 128 Kbps
    Channel(s)                       : 2 channels
    Sampling rate                    : 44.1 KHz
    Compression mode                 : Lossy
    Stream size                      : 138 MiB (20%)
    Alignment                        : Aligned on interleaves
    Interleave, duration             : 26 ms (0.65 video frame)
    Interleave, preload duration     : 522 ms
    Writing library                  : LAME3.98.2
    
    
    General
    
    Format                           : AVI
    Format/Info                      : Audio Video Interleave
    File size                        : 704 MiB
    Duration                         : 2h 30mn
    Overall bit rate                 : 653 Kbps

    !!!SEEDING TIME ALWAYS ON FOR YOU GUYS!!!




    Attached Files Attached Files
    • This post requires you to click the Thanks button to see Attachments.



  2. #2
    BanglaTorrents Releaser

    Join Date
    May 2009
    Location
    Chinsurah,Hooghly
    Posts
    1,552
    Post Thanks / Like
    Mentioned
    13 Post(s)
    Tagged
    9 Thread(s)
    Rep Power
    146

    Re: Jani dushman.horror movie dubbed.vcdrip.703mb.avi.[karanjai1111]

    Jio Guru....Purana Mandir Kobe dichho.....
    Bapok release....Thanks.

  3. #3
    BT ManiaC

    Join Date
    Jun 2009
    Location
    BT
    Posts
    2,965
    Post Thanks / Like
    Mentioned
    67 Post(s)
    Tagged
    24 Thread(s)
    Rep Power
    173

    Re: Jani dushman.horror movie dubbed.vcdrip.703mb.avi.[karanjai1111]

    Bah ba ajkal abar eisob muvie banglateo dubbud hoy naki!!!!! ta oboshyo jokhon Titanic er dubbed hote pare tokhon sob movie er khtreo somvob.
    Accha DON2 er bangla sunbo ami,dekhbo DON er mukhe dialogue gulo banglay kemon lage.:P
    darun release karan.You r Making BT Proud.:big hug:

  4. #4
    BT ManiaC
    Join Date
    Jan 2011
    Posts
    2,880
    Post Thanks / Like
    Mentioned
    73 Post(s)
    Tagged
    24 Thread(s)
    Rep Power
    108

    Re: Jani dushman.horror movie dubbed.vcdrip.703mb.avi.[karanjai1111]

    khub sundor hoyache collection ta.......

  5. #5
    BT ManiaC

    Join Date
    Feb 2009
    Posts
    2,502
    Post Thanks / Like
    Mentioned
    121 Post(s)
    Tagged
    30 Thread(s)
    Rep Power
    182

    Re: Jani dushman.horror movie dubbed.vcdrip.703mb.avi.[karanjai1111]

    Ghost Specialist er ar ek ta Super Duper Ghostly RLZ :) Ami palai ei thread e dhuke e amay bhoy pache :{ Thanx 4 sharing Karan ...

  6. #6
    Administrator
    Join Date
    Dec 2010
    Location
    BT
    Posts
    4,320
    Post Thanks / Like
    Mentioned
    675 Post(s)
    Tagged
    75 Thread(s)
    Rep Power
    170

    Re: Jani dushman.horror movie dubbed.vcdrip.703mb.avi.[karanjai1111]

    DOnt forget to say thanks ta rokto diye lekha .. movie r theme r sathe thread er deco ta match korche..

    Thanks karan

  7. #7
    Pbands Shishya

    Join Date
    Apr 2009
    Location
    বিটিতে !
    Posts
    1,740
    Post Thanks / Like
    Mentioned
    204 Post(s)
    Tagged
    88 Thread(s)
    Rep Power
    482

    Re: Jani dushman.horror movie dubbed.vcdrip.703mb.avi.[karanjai1111]

    ki bhoyanok.. bhoyer sathe thankx

  8. #8
    BT ManiaC
    Join Date
    Jul 2010
    Location
    neel akash
    Posts
    1,611
    Post Thanks / Like
    Mentioned
    8 Post(s)
    Tagged
    31 Thread(s)
    Rep Power
    69

    Re: Jani dushman.horror movie dubbed.vcdrip.703mb.avi.[karanjai1111]

    thanks a lot ........banglae movie ta jome jabe ....:P

 

 

Posting Permissions

  • You may not post new threads
  • You may not post replies
  • You may not post attachments
  • You may not edit your posts
  •