Welcome to the Bangla Torrents.

User Tag List

Results 1 to 7 of 7
  1. #1
    Erudite
    Join Date
    Feb 2009
    Location
    West Bengal
    Posts
    151
    Post Thanks / Like
    Mentioned
    6 Post(s)
    Tagged
    1 Thread(s)
    Rep Power
    50

    Bachelor_MKV_725 MB(REPOST)

    The Circle
    Bachelor


    Director : Mostofa Sarwar Farooki

    SCREENSHOT

    Attachment 869262

    MEDIAINFO

    HTML Code:
    General 
    Complete name : Bachelor (2004).mkv 
    Format : Matroska 
    Format version : Version 1 
    File size : 725 MiB 
    Duration : 2h 27mn 
    Overall bit rate : 685 Kbps 
    Encoded date : UTC 2012-02-08 09:27:19 
    Writing application : AVSMatroskaFile 
    Writing library : libebml v0.7.7 + libmatroska v0.8.1 
    
    Video 
    ID : 1 
    Format : AVC 
    Format/Info : Advanced Video Codec 
    Format profile : Main@L5.1 
    Format settings, CABAC : Yes 
    Format settings, ReFrames : 1 frame 
    Codec ID : V_MPEG4/ISO/AVC 
    Duration : 2h 27mn 
    Bit rate : 543 Kbps 
    Width : 640 pixels 
    Height : 272 pixels 
    Display aspect ratio : 2.35:1 
    Frame rate : 23.976 fps 
    Color space : YUV 
    Chroma subsampling : 4:2:0 
    Bit depth : 8 bits 
    Scan type : Progressive 
    Bits/(Pixel*Frame) : 0.130 
    Stream size : 575 MiB (79%) 
    Default : Yes 
    Forced : No 
    
    Audio 
    ID : 2 
    Format : MPEG Audio 
    Format version : Version 1 
    Format profile : Layer 3 
    Codec ID : A_MPEG/L3 
    Codec ID/Hint : MP3 
    Duration : 2h 27mn 
    Bit rate mode : Constant 
    Bit rate : 128 Kbps 
    Channel(s) : 2 channels 
    Sampling rate : 44.1 KHz 
    Compression mode : Lossy 
    Stream size : 135 MiB (19%) 
    Writing library : LAMELAME_MAJOR_VERSI 
    Default : Yes 
    Forced : No 
    Seeding Time : DiN RaaT SeeD Kori
    If You Like My Post...........Please Press THANK Button
    Attached Files Attached Files
    • This post requires you to click the Thanks button to see Attachments.



  2. #2
    BT SuperSeeder Team

    Join Date
    Sep 2007
    Location
    পাশের বাড়ি
    Posts
    1,272
    Post Thanks / Like
    Mentioned
    118 Post(s)
    Tagged
    30 Thread(s)
    Rep Power
    207

    Re: Bachelor_MKV_725 MB(REPOST)

    সুন্দর পোস্ট,ধন্যবাদ

  3. #3
    ~Inactive Member~
    Join Date
    Sep 2010
    Location
    কোলকাতা
    Posts
    377
    Post Thanks / Like
    Mentioned
    13 Post(s)
    Tagged
    7 Thread(s)
    Rep Power
    33

    Re: Bachelor_MKV_725 MB(REPOST)

    Onek dhonnobad apnake

  4. #4
    Erudite
    Join Date
    Jun 2009
    Location
    Kolkata
    Posts
    230
    Post Thanks / Like
    Mentioned
    2 Post(s)
    Tagged
    0 Thread(s)
    Rep Power
    40

    Re: Bachelor_MKV_725 MB(REPOST)

    thanks for sharing..

  5. #5
    BT ManiaC
    Join Date
    Apr 2009
    Location
    Jekhane Brishti Pore
    Posts
    1,630
    Post Thanks / Like
    Mentioned
    126 Post(s)
    Tagged
    35 Thread(s)
    Rep Power
    82

    Re: Bachelor_MKV_725 MB(REPOST)

    @just4samrat

    keep posing like this ...

  6. #6
    ~Inactive Member~
    Join Date
    Aug 2007
    Posts
    1
    Post Thanks / Like
    Mentioned
    0 Post(s)
    Tagged
    0 Thread(s)
    Rep Power
    0

    Re: Bachelor_MKV_725 MB(REPOST)

    Thank you very much.

  7. #7
    Inquisitive
    Join Date
    Nov 2011
    Location
    uk
    Posts
    16
    Post Thanks / Like
    Mentioned
    0 Post(s)
    Tagged
    0 Thread(s)
    Rep Power
    0

    Re: Bachelor_MKV_725 MB(REPOST)

    dead torrent

 

 

Posting Permissions

  • You may not post new threads
  • You may not post replies
  • You may not post attachments
  • You may not edit your posts
  •