Welcome to the Bangla Torrents.

User Tag List

Results 1 to 11 of 11
  1. #1
    Luminous
    Join Date
    Mar 2009
    Location
    Kolkata, India
    Posts
    113
    Post Thanks / Like
    Mentioned
    3 Post(s)
    Tagged
    2 Thread(s)
    Rep Power
    45

    Heart Gopal Bhar (8 Parts) -- DvDRip 1.35GB -- TDT -- By James



    Gopal Bhar (8 Parts) -- DvDRip 1.35GB -- TDT -- By James

    Code:
    General
          Complete name : Gopal Bhar (8 Parts) -- DvDRip 1.35GB -- TDT -- By James.avi
          Format : AVI
          Format/Info : Audio Video Interleave
          File size : 1.36 GiB
          Duration : 3h 34mn
          Overall bit rate : 906 Kbps
       Video
          Format : MPEG-4 Visual
          Format profile : Streaming Video@L1
          Format settings, BVOP : Yes
          Format settings, QPel : No
          Format settings, GMC : No warppoints
          Format settings, Matrix : Default
          Codec ID : XVID
          Codec ID/Hint : XviD
          Duration : 3h 34mn
          Bit rate : 796 Kbps
          Width : 640 pixels
          Height : 478 pixels
          Display aspect ratio : 4/3
          Frame rate : 29.970 fps
          Resolution : 24 bits
          Colorimetry : 4:2:0
          Scan type : Progressive
          Bits/(Pixel*Frame) : 0.087
          Stream size : 1.19 GiB (88%)
          Writing library : XviD 50
       Audio
          Format : MPEG Audio
          Format version : Version 1
          Format profile : Layer 3
          Codec ID : 55
          Codec ID/Hint : MP3
          Bit rate mode : Constant
          Bit rate : 96.0 Kbps
          Channel(s) : 2 channels
          Sampling rate : 48.0 KHz
          Resolution : 16 bits
          Stream size : 147 MiB (11%)
          Alignment : Split accross interleaves
          Interleave, duration : 24 ms (0.72 video frame)










    SAMPLE







  2. #2
    Erudite
    Join Date
    Aug 2007
    Posts
    184
    Post Thanks / Like
    Mentioned
    2 Post(s)
    Tagged
    0 Thread(s)
    Rep Power
    44

    Re: Gopal Bhar (8 Parts) -- DvDRip 1.35GB -- TDT -- By James

    thanks..kintu ekta file e 1.35 GB!!...beshi boro hoe gelo, i don't like such a big file....koyekta file e vag kora thakle DL kora easy hoto, jehetu 8 ta part, 8 ta file hole valo hoto...eto boro file ami DL suru korle bohudin lagbe, majhpothei seeder gayeb kinba amar monthly local internet DL limit sesh hoe jete pare ba karo karo DL ratio 0.60 er niche neme aste pare (jehetu freeleech na, obosso amar nijer ratio 0.60 er niche nambe na apatoto)...resolution komie ba format change kore size komie ana jete pare...

  3. #3
    Erudite
    Join Date
    Jun 2009
    Location
    Kolkata
    Posts
    229
    Post Thanks / Like
    Mentioned
    2 Post(s)
    Tagged
    0 Thread(s)
    Rep Power
    37

    Re: Gopal Bhar (8 Parts) -- DvDRip 1.35GB -- TDT -- By James

    Thanks for sharing...

  4. #4
    Tech Moderator
    Join Date
    Apr 2009
    Location
    Jekhane Brishti Pore
    Posts
    1,610
    Post Thanks / Like
    Mentioned
    123 Post(s)
    Tagged
    35 Thread(s)
    Rep Power
    79

    Re: Gopal Bhar (8 Parts) -- DvDRip 1.35GB -- TDT -- By James

    khub sundor hyche ... thanks for sharing

  5. #5
    Inquisitive
    Join Date
    Jun 2012
    Posts
    8
    Post Thanks / Like
    Mentioned
    0 Post(s)
    Tagged
    0 Thread(s)
    Rep Power
    0

    Re: Gopal Bhar (8 Parts) -- DvDRip 1.35GB -- TDT -- By James

    thanks dear....

  6. #6
    Inquisitive
    Join Date
    Apr 2009
    Posts
    16
    Post Thanks / Like
    Mentioned
    0 Post(s)
    Tagged
    0 Thread(s)
    Rep Power
    0

    Re: Gopal Bhar (8 Parts) -- DvDRip 1.35GB -- TDT -- By James

    plzz seed..

  7. #7
    Erudite
    Join Date
    Jun 2009
    Location
    চাঁদের পাহাড়
    Posts
    181
    Post Thanks / Like
    Mentioned
    1 Post(s)
    Tagged
    1 Thread(s)
    Rep Power
    34

    Re: Gopal Bhar (8 Parts) -- DvDRip 1.35GB -- TDT -- By James


  8. #8
    ~Inactive Member~
    Join Date
    Mar 2007
    Location
    Kolkata
    Posts
    102
    Post Thanks / Like
    Mentioned
    0 Post(s)
    Tagged
    0 Thread(s)
    Rep Power
    45

    Re: Gopal Bhar (8 Parts) -- DvDRip 1.35GB -- TDT -- By James

    bah durdanto

  9. #9
    Inquisitive
    Join Date
    Dec 2011
    Location
    kolkata
    Posts
    17
    Post Thanks / Like
    Mentioned
    0 Post(s)
    Tagged
    0 Thread(s)
    Rep Power
    0

    Re: Gopal Bhar (8 Parts) -- DvDRip 1.35GB -- TDT -- By James

    Quote Originally Posted by manojit82 View Post
    bah durdanto

  10. #10
    Deferential
    Join Date
    Nov 2012
    Location
    এইখানে
    Posts
    389
    Post Thanks / Like
    Mentioned
    6 Post(s)
    Tagged
    7 Thread(s)
    Rep Power
    59

    Re: Gopal Bhar (8 Parts) -- DvDRip 1.35GB -- TDT -- By James

    Darun release

  11. #11
    Inquisitive
    Join Date
    Jul 2009
    Posts
    9
    Post Thanks / Like
    Mentioned
    0 Post(s)
    Tagged
    0 Thread(s)
    Rep Power
    0

    Re: Gopal Bhar (8 Parts) -- DvDRip 1.35GB -- TDT -- By James

    seeds koi?

 

 

Posting Permissions

  • You may not post new threads
  • You may not post replies
  • You may not post attachments
  • You may not edit your posts
  •