Welcome to the Bangla Torrents.

User Tag List

Results 1 to 5 of 5
  1. #1
    BT 2* Releaser

    Join Date
    Feb 2011
    Location
    KOLKATA
    Posts
    2,894
    Post Thanks / Like
    Mentioned
    77 Post(s)
    Tagged
    34 Thread(s)
    Rep Power
    559

    Tlight SUNDAY HORROR Special Sony 8 Telefilm.NISHIRAAT.TV-RIP.AVI.667MB.[KARANJAI1111]





    CAST & CREW

    অভিনয় করেছেন
    Titas Bhoumick,Koel Das,Siddharth Banerjee,Rajarshi Mukherjee, ETC
    উপস্থাপনা
    Nilakhi Roy
    কাহিনী চিত্রনাট্য পরিচালনা
    Abhirup Bandapadhay
    চিত্রগ্রহণ
    Tapas Kumar Ganguly
    শিল্প নির্দেশনা
    Ananda Addo
    সম্পাদনা
    Saibal Das
    গ্রাফিক্স
    Arnab Dasgupta
    রূপসজ্জা
    Moloy Mukherjee














    Code:
    Video
    
    ID                                       : 0
    Format                                   : MPEG-4 Visual
    Format profile                           : Simple@L3
    Format settings, BVOP                    : No
    Format settings, QPel                    : No
    Format settings, GMC                     : No warppoints
    Format settings, Matrix                  : Default (H.263)
    Codec ID                                 : XVID
    Codec ID/Hint                            : XviD
    Duration                                 : 1h 39mn
    Bit rate                                 : 768 Kbps
    Width                                    : 640 pixels
    Height                                   : 480 pixels
    Display aspect ratio                     : 4:3
    Frame rate                               : 25.000 fps
    Color space                              : YUV
    Chroma subsampling                       : 4:2:0
    Bit depth                                : 8 bits
    Scan type                                : Progressive
    Compression mode                         : Lossy
    Bits/(Pixel*Frame)                       : 0.100
    Stream size                              : 545 MiB (82%)
    Writing library                          : XviD 1.2.1 (UTC 2008-12-04)


    Code:
    Audio
    ID                                       : 1
    Format                                   : MPEG Audio
    Format version                           : Version 1
    Format profile                           : Layer 3
    Mode                                     : Joint stereo
    Mode extension                           : MS Stereo
    Codec ID                                 : 55
    Codec ID/Hint                            : MP3
    Duration                                 : 1h 39mn
    Bit rate mode                            : Constant
    Bit rate                                 : 160 Kbps
    Channel(s)                               : 2 channels
    Sampling rate                            : 48.0 KHz
    Compression mode                         : Lossy
    Stream size                              : 113 MiB (17%)
    Alignment                                : Aligned on interleaves
    Interleave, duration                     : 24 ms (0.60 video frame)
    Interleave, preload duration             : 600 ms
    Writing library                          : LAME3.98.2
    
    General
    
    Format                                   : AVI
    Format/Info                              : Audio Video Interleave
    File size                                : 667 MiB
    Duration                                 : 1h 39mn
    Overall bit rate                         : 941 Kbps


    (DONT FORGET TO HIT THANKS & REPUTATION BUTTON)


    MY PREVIOUS CURRENT Releases

    Shirshendu Mukhapadhay Bhoutik Galpa Samgra(খণ্ড ১) CLICK

    Shirshendu Mukhapadhay Bhoutik Galpa Samgra(খণ্ড ২) CLICK

    Shirshendu Mukhapadhay Bhoutik Galpa Samgra(খণ্ড ৩~শেষ) CLICK

    DOMFATA HASIR GOLPO~By Many Writers CLICK

    Harshabardhan O Kolkekashi By Shibram Chakraborty CLICK

    Laltu Aar Boltu Comic CLICK

    BHUTURE KOTHA BY AMAR MITRA CLICK

    BIDHU DAROGA Comics [HQ]By Shirshendu Mukhapadhay CLICK

    SUNDAY HORROR Special Sony 8 Telefilm Mrityur Hatchani CLICK
    Attached Files Attached Files
    • This post requires you to click the Thanks button to see Attachments.



  2. #2
    BT Active
    Join Date
    Feb 2009
    Posts
    660
    Post Thanks / Like
    Mentioned
    13 Post(s)
    Tagged
    2 Thread(s)
    Rep Power
    46

    Re: SUNDAY HORROR Special Sony 8 Telefilm.NISHIRAAT.TV-RIP.AVI.667MB.[KARANJAI1111]

    darun bhoyer chobi donnobad

  3. #3
    BORN CRIMINAL
    Join Date
    Mar 2009
    Location
    অপরাধের কারখানা বা বিষকুম্ভ বা KCN Factory
    Posts
    1,822
    Post Thanks / Like
    Mentioned
    23 Post(s)
    Tagged
    6 Thread(s)
    Rep Power
    84

    Heart Re: SUNDAY HORROR Special Sony 8 Telefilm.NISHIRAAT.TV-RIP.AVI.667MB.[KARANJAI1111]

    hats off.......karechho kee vaya??????seed beshi pelei namabo..........asadharon up..........:big hug::big hug::big hug:

  4. #4
    BT Active
    Join Date
    Jul 2007
    Posts
    499
    Post Thanks / Like
    Mentioned
    7 Post(s)
    Tagged
    0 Thread(s)
    Rep Power
    58

    Re: SUNDAY HORROR Special Sony 8 Telefilm.NISHIRAAT.TV-RIP.AVI.667MB.[KARANJAI1111]

    darun darun.....nishi raat / baaka chand.....akashe.....

    thanks a lor for your hard work!

  5. #5
    BanglaTorrents Releaser

    Join Date
    May 2009
    Location
    Chinsurah,Hooghly
    Posts
    1,552
    Post Thanks / Like
    Mentioned
    13 Post(s)
    Tagged
    9 Thread(s)
    Rep Power
    145

    Re: SUNDAY HORROR Special Sony 8 Telefilm.NISHIRAAT.TV-RIP.AVI.667MB.[KARANJAI1111]

    Ore Pagla...Ki Darun Share Korle!!! SS dekhei to Rater Ghum Ure Jabe.Thanks For Nice Sharing.

 

 

Posting Permissions

  • You may not post new threads
  • You may not post replies
  • You may not post attachments
  • You may not edit your posts
  •