Welcome to the Bangla Torrents.

User Tag List

Results 1 to 7 of 7
  1. #1
    BanglaTorrents Releaser

    Join Date
    Mar 2009
    Location
    Moner Kachakachi.
    Posts
    2,003
    Post Thanks / Like
    Mentioned
    63 Post(s)
    Tagged
    20 Thread(s)
    Rep Power
    332

    Movie RAJA KANGSO.VCD Rip.365 MB.AVI.Santanu Patra Release

    "SANTANU PATRA" Presenting.....

    RAJA KANGSO






    SAMPLE SCREENSHOTS













    Format : AVI
    Format/Info : Audio Video Interleave
    File size : 365 MiB
    Duration : 1h 2mn
    Overall bit rate : 815 Kbps
    Writing application : MEncoder SVN-r30881(20100311-gcc4.3.3)
    Writing library : MPlayer

    Video
    ID : 0
    Format : MPEG-4 Visual
    Format profile : Advanced Simple@L5
    Format settings, BVOP : 2
    Format settings, QPel : No
    Format settings, GMC : No warppoints
    Format settings, Matrix : Default (H.263)
    Codec ID : XVID
    Codec ID/Hint : XviD
    Duration : 1h 2mn
    Bit rate : 675 Kbps
    Width : 640 pixels
    Height : 480 pixels
    Display aspect ratio : 4:3
    Frame rate : 25.000 fps
    Standard : PAL
    Color space : YUV
    Chroma subsampling : 4:2:0
    Bit depth : 8 bits
    Scan type : Progressive
    Compression mode : Lossy
    Bits/(Pixel*Frame) : 0.266
    Stream size : 302 MiB (83%)
    Writing library : XviD 1.2.1 (UTC 2008-12-04)

    Audio
    ID : 1
    Format : MPEG Audio
    Format version : Version 1
    Format profile : Layer 3
    Mode : Joint stereo
    Codec ID : 55
    Codec ID/Hint : MP3
    Duration : 1h 2mn
    Bit rate mode : Constant
    Bit rate : 128 Kbps
    Channel(s) : 2 channels
    Sampling rate : 44.1 KHz
    Compression mode : Lossy
    Delay relative to video : 40ms
    Stream size : 57.4 MiB (16%)
    Alignment : Aligned on interleaves
    Interleave, duration : 26 ms (0.65 video frame)
    Interleave, preload duration : 522 ms



    N.B. - Apnar Fevarite Movie BT te na pele amake PM karun (Movie On Demand).


    SEEDING TIME - 2 AM - 8 AM. EXCEPT POWER PROBLEM





    Attached Files Attached Files
    • This post requires you to click the Thanks button to see Attachments.



  2. #2
    Ex- Super Admin

    Join Date
    Nov 2006
    Location
    সাধারণ মানুষের মাঝে
    Posts
    5,773
    Post Thanks / Like
    Mentioned
    483 Post(s)
    Tagged
    164 Thread(s)
    Rep Power
    444

    Re: RAJA KANGSO.VCD Rip.365 MB.AVI.Santanu Patra Release

    eta ki movie na jatra'r video?

    dhonyobad. ei rokom na jana sob release'er jonyo.

  3. #3
    BanglaTorrents Releaser

    Join Date
    Mar 2009
    Location
    Moner Kachakachi.
    Posts
    2,003
    Post Thanks / Like
    Mentioned
    63 Post(s)
    Tagged
    20 Thread(s)
    Rep Power
    332

    Re: RAJA KANGSO.VCD Rip.365 MB.AVI.Santanu Patra Release

    Quote Originally Posted by SABJANTA View Post
    eta ki movie na jatra'r video?

    dhonyobad. ei rokom na jana sob release'er jonyo.
    Na eta movie noy, JatraPala. Tobe dekhte Natok-er moto lagbe.

  4. #4
    BT Krazzy

    Join Date
    May 2009
    Location
    এই তো আমি
    Posts
    3,796
    Post Thanks / Like
    Mentioned
    287 Post(s)
    Tagged
    103 Thread(s)
    Rep Power
    371

    Re: RAJA KANGSO.VCD Rip.365 MB.AVI.Santanu Patra Release

    তোমার কাছে কিছু কালেকশন থাকে বটে। থাঙ্কু।
    পুজো উপহার সংগ্রহ করতে নীচের ছবিতে ক্লিক করো




  5. #5
    Forum Moderator

    Join Date
    Jun 2010
    Location
    sudur dokhine
    Posts
    1,288
    Post Thanks / Like
    Mentioned
    110 Post(s)
    Tagged
    18 Thread(s)
    Rep Power
    122

    Re: RAJA KANGSO.VCD Rip.365 MB.AVI.Santanu Patra Release

    Quote Originally Posted by SABJANTA View Post
    eta ki movie na jatra'r video?
    jatrar video chai naki?????

    bujhe shune hyan kinba na bolo...... hyan bolle kintu amar jonye alada ekta gota sub section khulte hobe.......ekkebare BT vorie debo tate!

  6. #6
    Ex- Super Admin

    Join Date
    Nov 2006
    Location
    সাধারণ মানুষের মাঝে
    Posts
    5,773
    Post Thanks / Like
    Mentioned
    483 Post(s)
    Tagged
    164 Thread(s)
    Rep Power
    444

    Re: RAJA KANGSO.VCD Rip.365 MB.AVI.Santanu Patra Release

    Quote Originally Posted by tamaltoru View Post
    jatrar video chai naki?????
    Bujhe shune hyan kinba na bolo...... hyan bolle kintu amar jonye alada ekta gota sub section khulte hobe.......ekkebare BT vorie debo tate!


    চ্যালেঞ্জ নিবি না ......
    হয়ে যাক তাহলে।

  7. #7
    Forum Moderator

    Join Date
    Jun 2010
    Location
    sudur dokhine
    Posts
    1,288
    Post Thanks / Like
    Mentioned
    110 Post(s)
    Tagged
    18 Thread(s)
    Rep Power
    122

    Re: RAJA KANGSO.VCD Rip.365 MB.AVI.Santanu Patra Release

    Quote Originally Posted by SABJANTA View Post
    চ্যালেঞ্জ নিবি না ......
    হয়ে যাক তাহলে।
    keu download korbe to? ei dekho ei torrent e ekhono ektao leecher nei!!!! oi voyei etodin upload korini
    ok next week er prothom dikei ami ekta dichhi......jodi 10 jon o downloader pai to thhik achhe, ami continue korbo, otherwise not
    tyobe etuku bolte pari guarantee die je valo laga ba na laga byaktigoto byapar....kintu je jinis share korbo ta net e konodin aseni, ekkebare notun jinis

 

 

Posting Permissions

  • You may not post new threads
  • You may not post replies
  • You may not post attachments
  • You may not edit your posts
  •