Welcome to the Bangla Torrents.

User Tag List

Results 1 to 7 of 7
  1. #1
    BT * Releaser

    Join Date
    Mar 2009
    Location
    Moner Kachakachi.
    Posts
    2,082
    Post Thanks / Like
    Mentioned
    66 Post(s)
    Tagged
    20 Thread(s)
    Rep Power
    345

    Movie ALIF LAILA.TV SERIES.EPISODE 4-6.398 MB.AVI.Santanu Patra Release

    "Santanu Patra" Presenting...


    ALIF LAILA (TV SERIES)
    EPISODE - 4 - 6






    STORY


    INCLUDES STORIES OF
    # ALADDIN
    # SINDBAD
    # ALIBABA

    The Internationally legendary known ARABIAN NIGHTS consists of 1001 stories including the world’s most famous Tales such as ‘ALLAHADIN AND THE MAGIC LAMP’, ‘ALIBABA AND THE FORTY THIEVES’, ‘SEVEN VOYAGES OF SINDBAD THE SAILOR’ etc.. SULTAN SHEHRYAR - kind considerate and just whose kingdom extended from Turkey to China Due to infidelity of his wife had turned into a beast.

    He would marry a virgin everyday and with the first rays of the Sun - execute her in the morning.
    His revenge and hatred for women was satisfied with making a women bride only for one night Vazir’s Daughter SHEHARZADE decided to make a human of this animal SULTAN SHEHRYAR - She decided to free and bring back woman’s dignity in the Sultan’s kingdom.

    Princess SHEHARZADE decided to marry SULTAN SHEHRYAR - even if she was to be his bride for only one day.
    Every night she narrated the Sultan one story - full of EASTERN WISDOM full of HUMAN GREATNESS and SACRIFICE - But every morning the story ended at a point which aroused the Sultan’s curiosity as a child and he wanted to know further the fate of the Magic Lamp or the Forty Thieves or the Genie imprisoned in the Brass bottle - and hence every night SULTAN SHEHRYAR spared PRINCESS SHEHRAZADE’S life for one more night This continued for 1001 nights .

    ARABIAN NIGHTS alias ALIF LAILA alias 1001 NIGHTS has lived through centuries, broken all political barriers and appealed to the old and young alike. ARABIAN NIGHTS has inspired great English writers such as SIR RICHARD BURTON who translated the same in English for His Majesty - The Queen of England - Queen Victoria .

















    Format : AVI
    Format/Info : Audio Video Interleave
    Overall bit rate : 805 Kbps
    Writing application : MEncoder SVN-r30881(20100311-gcc4.3.3)
    Writing library : MPlayer

    Video
    ID : 0
    Format : MPEG-4 Visual
    Format profile : Advanced Simple@L5
    Format settings, BVOP : 2
    Format settings, QPel : No
    Format settings, GMC : No warppoints
    Format settings, Matrix : Default (H.263)
    Codec ID : XVID
    Codec ID/Hint : XviD
    Bit rate : 665 Kbps
    Width : 352 pixels
    Height : 288 pixels
    Display aspect ratio : 4:3
    Frame rate : 25.000 fps
    Standard : PAL
    Color space : YUV
    Chroma subsampling : 4:2:0
    Bit depth : 8 bits
    Scan type : Progressive
    Compression mode : Lossy
    Bits/(Pixel*Frame) : 0.262
    Stream size : 107 MiB (83%)
    Writing library : XviD 1.2.1 (UTC 2008-12-04)

    Audio
    ID : 1
    Format : MPEG Audio
    Format version : Version 1
    Format profile : Layer 3
    Mode : Joint stereo
    Mode extension : MS Stereo
    Codec ID : 55
    Codec ID/Hint : MP3
    Bit rate mode : Constant
    Bit rate : 128 Kbps
    Channel(s) : 2 channels
    Sampling rate : 44.1 KHz
    Compression mode : Lossy
    Delay relative to video : 40ms
    Stream size : 20.7 MiB (16%)
    Alignment : Aligned on interleaves
    Interleave, duration : 26 ms (0.65 video frame)
    Interleave, preload duration : 522 ms



    N.B. - Apnar Fevarite Movie BT te na pele amake PM karun (Movie On Demand).


    SEEDING TIME - 2 AM - 8 AM. EXCEPT POWER PROBLEM





    Attached Files Attached Files
    • This post requires you to click the Thanks button to see Attachments.



  2. #2
    Ex- Super Admin

    Join Date
    Nov 2006
    Location
    সাধারণ মানুষের মাঝে
    Posts
    5,914
    Post Thanks / Like
    Mentioned
    491 Post(s)
    Tagged
    164 Thread(s)
    Rep Power
    458

    Re: ALIF LAILA.TV SERIES.EPISODE 4-6.398 MB.AVI.Santanu Patra Release

    নানাবিধ, নামনাজানা সংগ্রহ যদি কেউ দেখতে চায়, তাহলে অবধারিত শান্তনুপাত্রের সাথে যোগাযোগ করতে পারেন।

    ধন্যবাদ শান্তনু।


    পাশে ছিলাম, পাশেই আছি।




    বাংলা টরেন্ট, এক এবঅনন্য



  3. #3
    Deferential
    Join Date
    Feb 2009
    Posts
    326
    Post Thanks / Like
    Mentioned
    4 Post(s)
    Tagged
    1 Thread(s)
    Rep Power
    60

    Re: ALIF LAILA.TV SERIES.EPISODE 4-6.398 MB.AVI.Santanu Patra Release

    Santanu da....Alif Laila r series jokhon dilen..ami obossoi d/l korbo...thank you...

  4. #4
    BT Active
    Join Date
    Jun 2009
    Location
    kolkata
    Posts
    402
    Post Thanks / Like
    Mentioned
    27 Post(s)
    Tagged
    2 Thread(s)
    Rep Power
    43

    Heart Re: ALIF LAILA.TV SERIES.EPISODE 4-6.398 MB.AVI.Santanu Patra Release

    শান্তনু ভাই/দাদা আলিফ লায়লার কোনো Episode অনেকদিন থেকে পাচ্ছি না। একটু দয়া করুন।

  5. #5
    BT ManiaC
    Join Date
    Jul 2010
    Location
    neel akash
    Posts
    1,611
    Post Thanks / Like
    Mentioned
    8 Post(s)
    Tagged
    31 Thread(s)
    Rep Power
    70

    Re: ALIF LAILA.TV SERIES.EPISODE 4-6.398 MB.AVI.Santanu Patra Release

    thanks for share ...

  6. #6
    Luminous
    Join Date
    Oct 2008
    Posts
    95
    Post Thanks / Like
    Mentioned
    0 Post(s)
    Tagged
    0 Thread(s)
    Rep Power
    40

    Re: ALIF LAILA.TV SERIES.EPISODE 4-6.398 MB.AVI.Santanu Patra Release

    jobbor hoyeche dada...porer episode gulo din

  7. #7
    Luminous
    Join Date
    Oct 2008
    Posts
    95
    Post Thanks / Like
    Mentioned
    0 Post(s)
    Tagged
    0 Thread(s)
    Rep Power
    40

    Re: ALIF LAILA.TV SERIES.EPISODE 4-6.398 MB.AVI.Santanu Patra Release

    porer episode gulo din dada..opekkha kore kore hapiye uthchi je

 

 

Posting Permissions

  • You may not post new threads
  • You may not post replies
  • You may not post attachments
  • You may not edit your posts
  •