Welcome to the Bangla Torrents.

User Tag List

Results 1 to 7 of 7
  1. #1
    BT 4* Releaser

    Join Date
    Aug 2011
    Location
    JAJABAR
    Posts
    897
    Post Thanks / Like
    Mentioned
    52 Post(s)
    Tagged
    21 Thread(s)
    Rep Power
    617

    Movie Akaler Shandhaney(1980)-Upscaled.DVDRip.720p.X264-AC3-2Ch-By Pherari Mon

    Akaler Shandhaney(1980)-Upscaled.DVDRip.720p.X264-AC3-2Ch-By

    Pherari Mon




    Akaler Shandhaney(1980)


    In September 1980, a film crew comes to a village to make a film about a famine, which killed five million Bengalees in 1943. It was a man made famine, a side- product of the war, and the film crew will create the tragedy of those millions who died of starvation. The film documents the convivial life among the film crew and the hazards, problems and tension of film making on location. The actors live a double life, and the villagers, both simple and not-so-simple folk watch their work with wonder and suspicion. But as the film progresses, the recreated past begins to confront the present. The uneasy coexistence of 1943 and 1980 reveals bizarre connection, involving a village woman whose visions add a further dimension of time—that of future. A disturbing situation, indeed, for the “famine-seekers”!
    Awards
     1980 - National Film Award for Best Film[1]
     1980 - National Film Award for Best Direction - Mrinal Sen
     1980 - National Film Award for Best Screenplay - Mrinal Sen
     1980 - National Film Award for Best Editing - Gangadhar Naskar
     1981 - 31st Berlin International Film Festival - Silver Bear - Special Jury Prize.[2]


    Dhritiman Chatterjee,Smita Patil,Gita Sen,Rajen Tarafdar,Sreela Mazumder,Radhamohan Bhattachariya,Jayanta Chowdhury
    Dipankar De,Jochhan Dastidar

    GENERAL
    Format : Matroska
    File size : 1.47 GiB
    Duration : 2h 04 mn 40 Sec
    Overall bit rate : 1 686 Kbps
    Video
    ID : 1
    Format : AVC
    Format/Info : Advanced Video Codec
    Format profile : High@L3.2
    Format settings, CABAC : Yes
    Format settings, ReFrames : 1 frames
    Codec ID : V_MPEG4/ISO/AVC
    Bit rate : 1 499 Kbps
    Width : 1 280 pixels
    Height : 960 pixels
    Display aspect ratio : 4:3
    Frame rate : 25.000 fps
    Color space : YUV
    Chroma subsampling : 4:2:0
    Bit depth : 8 bits
    Scan type : Progressive
    Bits/(Pixel*Frame) : 0.04
    Stream size : 1.27 GiB (86%)

    Audio #2
    ID : 2
    Format : AC-3
    Format/Info : Audio Coding 3
    Mode extension : CM (complete main)
    Codec ID : A_AC3
    Bit rate mode : Constant
    Bit rate : 192 Kbps
    Channel(s) : 2 channels
    Channel positions : Front: L R, LFE
    Sampling rate : 48.0 KHz
    Bit depth : 16 bits
    Compression mode : Lossy
    Stream size : 171MiB (12%)



    Attached Files Attached Files
    • This post requires you to click the Thanks button to see Attachments.



  2. #2
    Inquisitive
    Join Date
    Feb 2008
    Posts
    7
    Post Thanks / Like
    Mentioned
    0 Post(s)
    Tagged
    0 Thread(s)
    Rep Power
    0

    Re: Akaler Shandhaney(1980)-Upscaled.DVDRip.720p.X264-AC3-2Ch-By Pherari Mon

    thanks a lot

  3. #3
    Deferential
    Join Date
    Feb 2009
    Posts
    323
    Post Thanks / Like
    Mentioned
    4 Post(s)
    Tagged
    1 Thread(s)
    Rep Power
    57

    Re: Akaler Shandhaney(1980)-Upscaled.DVDRip.720p.X264-AC3-2Ch-By Pherari Mon

    PM da...darun post..TV te dekhechhilum onekdin aage...ebar abar dekhbo...

  4. #4
    Inquisitive
    Join Date
    Oct 2008
    Location
    Bangladesh
    Posts
    34
    Post Thanks / Like
    Mentioned
    0 Post(s)
    Tagged
    0 Thread(s)
    Rep Power
    36

    Re: Akaler Shandhaney(1980)-Upscaled.DVDRip.720p.X264-AC3-2Ch-By Pherari Mon

    অনেক সুন্দর শেয়ার ।
    অসাধারন ক্লাসিক শেয়ার
    অনেক ধন্যবাদ

  5. #5
    Deferential
    Join Date
    Jun 2009
    Location
    kolkata
    Posts
    389
    Post Thanks / Like
    Mentioned
    26 Post(s)
    Tagged
    2 Thread(s)
    Rep Power
    40

    Heart Re: Akaler Shandhaney(1980)-Upscaled.DVDRip.720p.X264-AC3-2Ch-By Pherari Mon

    মনদা অনেকদিন বাদে এত সুন্দর একটা ক্লাসিক শেয়ার করলেন তাও আবার 720p quality-র। অনেক ধন্যবাদ আপনার এই প্রচেষ্টাকে।

  6. #6
    BT Active
    Join Date
    Feb 2009
    Posts
    661
    Post Thanks / Like
    Mentioned
    13 Post(s)
    Tagged
    2 Thread(s)
    Rep Power
    47

    Re: Akaler Shandhaney(1980)-Upscaled.DVDRip.720p.X264-AC3-2Ch-By Pherari Mon

    thanks for great movie

  7. #7
    Deferential
    Join Date
    Dec 2008
    Location
    Kharagpur/West Bengal
    Posts
    297
    Post Thanks / Like
    Mentioned
    2 Post(s)
    Tagged
    0 Thread(s)
    Rep Power
    55

    Re: Akaler Shandhaney(1980)-Upscaled.DVDRip.720p.X264-AC3-2Ch-By Pherari Mon

    এই অসাধারণ সিনেমাটা এত সুন্দর ফরম্যাট-এ শেয়ার করার জন্য অনেক ধন্যবাদ।